Tags
Language
Tags

Pat Metheny - Bright Size Life (1976) [Japan 2017] PS3 ISO + Hi-Res FLAC

Posted By: HDAtall
Pat Metheny - Bright Size Life (1976) [Japan 2017] PS3 ISO + Hi-Res FLAC

Pat Metheny - Bright Size Life (1976) [Japan 2017]
SACD Rip | SACD ISO | DSD64 2.0 > 1-bit/2.8224 MHz | 36:58 minutes | Scans included | 1,07 GB
or FLAC(converted with foobar2000 to tracks) 24bit/88,2 kHz | Full Scans included | 830 MB

Pat Metheny's debut studio album is a good one, a trio date that finds him already laying down the distinctively cottony, slightly withdrawn tone and asymmetrical phrasing that would serve him well through most of the swerves in direction ahead. His original material, all of it lovely, bears the bracing air of his Midwestern upbringing, with titles like "Missouri Uncompromised," "Midwestern Nights Dream," and "Omaha Celebration." There is also a sole harbinger of radical matters way down the road with the inclusion of a loose-jointed treatment of Ornette Coleman's "Round Trip/Broadway Blues," proving that Song X did not come from totally out of the blue. Besides being Metheny's debut, this LP also features one of the earliest recordings of Jaco Pastorius, a fully formed, well-matched contrapuntal force on electric bass, though content to leave the spotlight mostly to Metheny. Bob Moses, who like Metheny played in the Gary Burton Quintet at the time, is the drummer, and he can mix it up, too.

Tracklist:

01. Bright Size Life
02. Sirabhorn
03. Unity Village
04. Missouri Uncompromised
05. Midwestern Nights Dream
06. Unquity Road
07. Omaha Celebration
08. Round Trip / Broadway Blues

Personnel
Pat Metheny - 6-string guitar, electric 12-string guitar
Jaco Pastorius - bass
Bob Moses - drums

Produced by Manfred Eicher. Engineered by Martin Wieland.
Recorded in December 1975 at Tonstudio, Bauer, Ludwigsburg.
DSD Remastered by Christoph Stickel in January 2017.

This Japanese SACD released in Japan on March 8, 2017. Tower Records Japan Inc. # PROZ-1089
The image ripped direct and unretouched using an Oppo BDP-105D, Sonore ISO2DSD, and sacd_extract.

foobar2000 1.3.15 / Dynamic Range Meter 1.1.1

––––––––––––––––––––––––––––––––––––––––
Analyzed: Pat Metheny / Bright Size Life
––––––––––––––––––––––––––––––––––––––––

DR Peak RMS Duration Track
––––––––––––––––––––––––––––––––––––––––
DR12 -6.38 dB -20.99 dB 4:48 01-Bright Size Life
DR11 -7.13 dB -20.81 dB 5:25 02-Sirabhorn
DR11 -9.75 dB -25.23 dB 3:38 03-Unity Village
DR11 -6.86 dB -20.18 dB 4:15 04-Missouri Uncompromised
DR10 -7.86 dB -22.10 dB 5:59 05-Midwestern Nights Dream
DR11 -7.03 dB -19.29 dB 3:34 06-Unquity Road
DR12 -6.44 dB -20.51 dB 4:18 07-Omaha Celebration
DR12 -6.63 dB -20.99 dB 5:01 08-Round Trip / Broadway Blues
––––––––––––––––––––––––––––––––––––––––

Number of tracks: 8
Official DR value: DR11

Samplerate: 2822400 Hz / PCM Samplerate: 88200 Hz
Channels: 2
Bits per sample: 1
Bitrate: 5645 kbps
Codec: DSD64


Thanks to Darkivist!
Uncompressed SACD ISO size > 1,49 GB
>