Patsy Cline - Patsy Cline's Greatest Hits (1967) [APO Remaster 2013] PS3 ISO + Hi-Res FLAC {RE-UP}

Posted By: HDAtall
Patsy Cline - Patsy Cline's Greatest Hits (1967) [APO Remaster 2013] PS3 ISO + Hi-Res FLAC {RE-UP}

Patsy Cline - Patsy Cline's Greatest Hits (1967) [Analogue Productions Remaster 2013]
PS3 Rip | SACD ISO | DSD64 Stereo > 1-bit/2.8224 MHz | 33:07 minutes | Scans included | 1012 MB
or FLAC 2.0 Stereo (converted with foobar2000 to tracks) 24bit/88,2 kHz | Scans included | 698 MB

Four years after her tragic death in a place crash at the age of 30, Patsy Cline was still one of the best-loved female vocalists in country music, and in 1967 Decca Records, the label that released the bulk of her hits, responded with this album, a collection of 12 of her most popular songs. There isn't anything particularly artful about the way this album was compiled or designed, but Patsy Cline's Greatest Hits certainly delivers what its title promises: these were most certainly the most popular tunes Cline cut during her tenure with Decca, and every one is a stunner, with Cline's rich, powerful voice gliding over the polished and evocative production by Owen Bradley. Cline and Bradley didn't invent "countrypolitan," but precious few artists managed to meld the sophistication of pop and the emotional honesty of country as brilliantly as this music accomplishes with seemingly effortless grace, and these songs still sound fresh and brilliantly crafted decades after the fact. This isn't the most thorough of the literally dozens of Patsy Cline collections on the market, and it isn't the best, but this was one of the first efforts to sum up her career in the years after her passing, and in 33 minutes it makes an airtight case that Cline was one of the finest and most versatile singers to ever step before a microphone. No small accomplishment, that.

Tracklist:

01. Walking After Midnight
02. Sweet Dreams
03. Crazy
04. I Fall To Pieces
05. So Wrong
06. Strange
07. Back In Baby's Arms
08. She's Got You
09. Faded Love
10. Why Can't He Be You
11. You're Stronger Than Me
12. Leavin' On Your Mind

Mastered by Ryan Smith at Sterling Sound from the Original analog tape.

foobar2000 1.2.9 / Dynamic Range Meter 1.1.1

––––––––––––––––––––––––––––––––––––––––
Analyzed: Patsy Cline / Greatest Hits
––––––––––––––––––––––––––––––––––––––––

DR Peak RMS Duration Track
––––––––––––––––––––––––––––––––––––––––
DR11 -7.16 dB -19.73 dB 2:02 01-Walking After Midnight
DR11 -7.57 dB -22.30 dB 2:35 02-Sweet Dreams
DR12 -8.45 dB -22.72 dB 2:44 03-Crazy
DR10 -8.03 dB -21.05 dB 2:50 04-I Fall To Pieces
DR10 -8.03 dB -20.78 dB 3:03 05-So Wrong
DR11 -7.38 dB -20.71 dB 2:11 06-Strange
DR11 -6.21 dB -20.39 dB 2:06 07-Back In Baby's Arms
DR11 -7.75 dB -21.67 dB 3:02 08-She's Got You
DR11 -6.71 dB -21.50 dB 3:45 09-Faded Love
DR11 -8.29 dB -22.60 dB 3:29 10-Why Can't He Be You
DR11 -7.56 dB -20.49 dB 2:54 11-You're Stronger Than Me
DR11 -6.98 dB -21.40 dB 2:28 12-Leavin' On Your Mind
––––––––––––––––––––––––––––––––––––––––

Number of tracks: 12
Official DR value: DR11

Samplerate: 2822400 Hz / PCM Samplerate: 88200 Hz
Channels: 2
Bits per sample: 24
Bitrate: 5645 kbps
Codec: DSD64


Thanks to PS³SACD!
Uncompressed SACD ISO size > 1,33 GB