Tags
Language
Tags

Paul Anka - Sings His Favorites (1966/2016) [Official Digital Download 24-bit/192kHz]

Posted By: HDV
Paul Anka - Sings His Favorites (1966/2016) [Official Digital Download 24-bit/192kHz]

Paul Anka - Sings His Favorites (1966/2016)
FLAC (tracks) 24-bit/192 kHz | Time - 29:20 minutes | 1,11 GB
FLAC (tracks) 24-bit/96 kHz | Time - 29:20 minutes | 652 MB
Studio Master, Official Digital Download | Artwork: Front cover

Paul Albert Anka is a Canadian-American singer, songwriter, and actor. Anka became famous during the late 1950s, 1960s, and 1970s with hit songs like "Diana", "Lonely Boy", and more. Over the years, Anka has also enjoyed substantial international popularity, having recorded albums in Japanese, German, Spanish, French and Italian.

Tracklist:

01 - Diana
02 - Put Your Head on My Shoulder
03 - You Are My Destiny
04 - Eso Beso (That Kiss!)
05 - I'm Glad There Is You (In This World of Ordinary People)
06 - Hello, Dolly! (From the Musical Production, Hello Dolly)
07 - Fly Me to the Moon
08 - Memories Are Made of This
09 - Sorrento
10 - Canadian Sunset

Analyzed: Paul Anka / Sings His Favorites
––––––––––––––––––––––––––––––––––––––––

DR Peak RMS Duration Track
––––––––––––––––––––––––––––––––––––––––
DR10 -0.02 dB -11.49 dB 2:21 01-Diana
DR9 -0.02 dB -11.19 dB 2:35 02-Put Your Head on My Shoulder
DR10 -0.02 dB -11.00 dB 2:28 03-You Are My Destiny
DR9 -0.02 dB -14.14 dB 2:52 04-Eso Beso (That Kiss!)
DR9 -0.78 dB -12.57 dB 4:34 05-I'm Glad There Is You (In This World of Ordinary People)
DR10 -0.02 dB -12.04 dB 1:35 06-Hello, Dolly! (From the Musical Production, Hello Dolly)
DR9 -0.95 dB -13.09 dB 3:41 07-Fly Me to the Moon
DR11 -0.02 dB -13.94 dB 2:12 08-Memories Are Made of This
DR8 -0.02 dB -12.04 dB 2:55 09-Sorrento
DR10 -0.02 dB -12.52 dB 4:08 10-Canadian Sunset
––––––––––––––––––––––––––––––––––––––––

Number of tracks: 10
Official DR value: DR9

Samplerate: 192000 Hz
Channels: 2
Bits per sample: 24
Bitrate: 5176 kbps
Codec: FLAC
================================================================================


Thanks to the Original customer!