Tags
Language
Tags

Paul Anka - Strictly Nashville (1966/2016) [Official Digital Download 24-bit/192kHz]

Posted By: HDV
Paul Anka - Strictly Nashville (1966/2016) [Official Digital Download 24-bit/192kHz]

Paul Anka - Strictly Nashville (1966/2016)
FLAC (tracks) 24-bit/192 kHz | Time - 30:08 minutes | 698 MB
FLAC (tracks) 24-bit/96 kHz | Time - 30:08 minutes | 449 MB
Studio Mono Master, Official Digital Download | Artwork: Front cover

Paul Albert Anka is a Canadian-American singer, songwriter, and actor. Anka became famous during the late 1950s, 1960s, and 1970s with hit songs like "Diana", "Lonely Boy", "Put Your Head on My Shoulder", and "(You're) Having My Baby". "Strictly Nashville" is his 1966's album released via RCA Victor label.

Tracklist:

01 - Bonaparte's Retreat
02 - I Wish
03 - Oh, Such a Stranger
04 - There Won't Be No Runnin' Back (To You)
05 - I Went to Your Wedding
06 - The Story of My Life
07 - Memphis, Tennessee
08 - It's Only Make Believe
09 - Truly Yours
10 - (I'd Be) A Legend In My Time
11 - I Didn't Mean to Hurt You
12 - Once a Day

Arranged by Bill McElhiney. Produced by Danny Davis. Engineered by Jim Malloy.
Recorded at RCA Victor Studios, Nashville. Backing Vocals performed by The Jordanaires.

Analyzed: Paul Anka / Strictly Nashville
––––––––––––––––––––––––––––––––––––––––

DR Peak RMS Duration Track
––––––––––––––––––––––––––––––––––––––––
DR10 -0.19 dB -13.66 dB 2:23 01-Bonaparte's Retreat
DR10 -0.27 dB -13.03 dB 2:17 02-I Wish
DR9 -1.03 dB -13.63 dB 2:57 03-Oh, Such a Stranger
DR11 -0.02 dB -13.28 dB 2:42 04-There Won't Be No Runnin' Back (To You)
DR10 -1.05 dB -14.06 dB 2:23 05-I Went to Your Wedding
DR11 -0.79 dB -14.42 dB 2:22 06-The Story of My Life
DR10 -0.71 dB -12.35 dB 2:23 07-Memphis, Tennessee
DR10 -0.02 dB -13.25 dB 2:41 08-It's Only Make Believe
DR10 -0.20 dB -14.03 dB 2:19 09-Truly Yours
DR9 -0.27 dB -13.27 dB 2:32 10-(I'd Be) A Legend In My Time
DR9 -1.39 dB -13.41 dB 2:37 11-I Didn't Mean to Hurt You
DR10 -0.54 dB -11.99 dB 2:29 12-Once a Day
––––––––––––––––––––––––––––––––––––––––

Number of tracks: 12
Official DR value: DR10

Samplerate: 192000 Hz
Channels: 2
Bits per sample: 24
Bitrate: 3148 kbps
Codec: FLAC
================================================================================


Thanks to the Original customer!