Paul Weller - Saturns Pattern {Deluxe Edition} (2015) [Official Digital Download]

Posted By: HDV
Paul Weller - Saturns Pattern {Deluxe Edition} (2015) [Official Digital Download]

Paul Weller - Saturns Pattern (2015) [Deluxe Edition]
FLAC (tracks) 24-bit/44,1 kHz | Time - 53:05 minutes | 668 MB
Studio Master, Official Digital Download | Artwork: Front cover

Continuing his ever soaring creative peak, Paul Weller releases his 12th studio album, „Saturn’s Pattern“. Paul continues to push the boundaries with another kaleidoscopic tour de force delivered with a verve and ambition to shame his contemporaries as he continues to adapt and evolve to stay one step ahead of the pack. Passion, progression, languid grooves and, as ever, spine-tingling Rock’n’Roll – Paul Weller has, yet again, delivered another masterpiece.

Parting ways with Simon Dine, the chief collaborator on every one of the records in his great new millennial revival, Paul Weller settles into a celestial groove on Saturn's Pattern. Aligning himself with Jan "Stan" Kybert, a producer who has been in his orbit since 2002's Illumination, Weller veers left from the bright modernism of 2012's Sonik Kicks, choosing to soften his edges and expand his horizons. As the album comes crashing into view via the heavy blooze of "White Skies" – a collaboration with neo-psychedelic pranksters Amorphous Androgynous that seems closer to Black Keys than Humble Pie and not all that trippy, either – it doesn't seem that Saturn's Pattern would get quite so mellow, but it doesn't take long before Weller happily lets himself drift away in a haze. So spacy is Saturn's Pattern that when it circles back toward a heavier blues on "Long Time" or "In the Car," the riffs get deliberately chopped and halted in favor of the kind of spiraling, soulful harmonies that populate the rest of the record. These production twists aren't belabored: they're slid in, adding atmosphere and texture to a record that already relies on vibe. Such subliminal accents freshen Weller's longstanding obsessions with '60s soul and expansive '70s rock, turning Saturn's Pattern into something that feels nearly as modern as Sonik Kicks. When he indulges in a wash of Vox organ and a rush of 12-string guitars, or when he updates Curtis Mayfield on "Phoenix," they play like transmissions from the past on an album that is focused on the now, and the willful, harmonious collisions of history and the future give Saturn's Pattern its kick, while the warm thrum of the grooves gives it its soul.

Tracklist:

01 - White Sky
02 - Saturns Pattern
03 - Going My Way
04 - Long Time
05 - Pick It Up
06 - I'm Where I Should Be
07 - Phoenix
08 - In The Car…
09 - These City Streets
10 - (I'm A) Roadrunner [Bonus Track]
11 - Dusk Til Dawn [Bonus Track]
12 - White Sky (Prof.Kybert vs. The Moons Remix) [Bonus Track]

Analyzed: Paul Weller / Saturns Pattern (Deluxe Edition)
––––––––––––––––––––––––––––––––––––––––

DR Peak RMS Duration Track
––––––––––––––––––––––––––––––––––––––––
DR4 -1.10 dB -8.10 dB 4:57 01-White Sky
DR4 -1.10 dB -7.13 dB 3:25 02-Saturns Pattern
DR4 -1.10 dB -7.92 dB 4:15 03-Going My Way
DR4 -1.10 dB -6.18 dB 2:12 04-Long Time
DR3 -1.10 dB -5.94 dB 6:16 05-Pick It Up
DR3 -1.10 dB -5.28 dB 3:26 06-I'm Where I Should Be
DR5 -1.10 dB -8.48 dB 5:56 07-Phoenix
DR4 -1.10 dB -8.37 dB 4:44 08-In The Car…
DR4 -1.10 dB -7.04 dB 8:24 09-These City Streets
DR5 -1.00 dB -7.02 dB 2:49 10-(I'm A) Roadrunner
DR6 -1.00 dB -8.45 dB 2:04 11-Dusk Til Dawn
DR5 -1.00 dB -7.30 dB 4:36 12-White Sky (Prof.Kybert vs. The Moons Remix)
––––––––––––––––––––––––––––––––––––––––

Number of tracks: 12
Official DR value: DR4

Samplerate: 44100 Hz
Channels: 2
Bits per sample: 24
Bitrate: 1696 kbps
Codec: FLAC
================================================================================


Thanks to the Original customer!

Paul Weller - A Kind Revolution (2017)