Pearl Jam - Lightning Bolt (2013) [Official Digital Download]

Posted By: HDV
Pearl Jam - Lightning Bolt (2013) [Official Digital Download]

Pearl Jam - Lightning Bolt (2013)
FLAC (tracks) 24 bit/44,1 kHz | Time - 47:13 minutes | 614 MB
Studio Master, Official Digital Download | Artwork: Front cover

"Lightning Bolt" is Pearl Jam's tenth, much-anticipated studio album. Produced by Brendan O'Brien, the album marks Pearl Jam's first studio album since the highly acclaimed "Backspacer", which was released nearly four years ago in September of 2009. "Lightning Bolt" features the singles "Sirens" and "Mind Your Manners".

Perhaps it's destined that a band who considered the Who and Neil Young idols would have no quarrel with middle age; nevertheless, the settled nature of Pearl Jam's Lightning Bolt comes as a bit of a jolt. Long ago, Pearl Jam opted out of the rat race, choosing to abandon MTV and album rock radio, ready to take any fans who came their way, and in a way, Lightning Bolt – their tenth studio album, arriving 22 years after the first – is a logical extension of that attitude, flirting with insouciance even at its loudest moments. Often, this record seems to ignore the very idea of immediacy; even when the tempos are rushed and the amplifiers are revved up, Pearl Jam never quite seem to be rocking with abandon, choosing to settle into comforting cacophony instead. Then again, nothing on Lightning Bolt – not the wannabe breakneck rocker "Mind Your Manners," not the tightly coiled title track, not the glam stomp of "Let the Records Play" – proceeds with any manner of urgency, with even the loudest rockers unveiled at a measured pace that allows plenty of space for solos by Mike McCready. The guitarist has room to roam and the band has a supple, natural interplay that only comes from almost 30 years of collaboration, but here more than ever, all the emotional notes seem to derive from Eddie Vedder, who is not only the chief songwriter/lyricist but a spiritual touchstone. Eying the milestone of 50, Vedder is very comfortable in his skin: he's no longer raging against the dying light or tilting at windmills, he's choosing his battles, knowing when to lie back so he can enjoy the rush of rock pushed out from his familiar, but never lazy, colleagues. This unhurriedness may seem to run counter to the rebellious spirit of rock & roll, but for all their insurrectionist acts, Pearl Jam weren't upstarts: they eagerly accepted the torch of arena rock when it was handed to them. On Lightning Bolt, they've grown into that classic rock mantle, accentuating the big riffs and bigger emotions, crafting songs without a worry as to whether they're hip or not and, most importantly, enjoying the deep-rooted, nervy arena rock that is uniquely their own.

Tracklist:

01 - Getaway
02 - Mind Your Manners
03 - My Father’s Son
04 - Sirens
05 - Lightning Bolt
06 - Infallible
07 - Pendulum
08 - Swallowed Whole
09 - Let The Records Play
10 - Sleeping By Myself
11 - Yellow Moon
12 - Future Days

Analyzed: Pearl Jam / Lightning Bolt
––––––––––––––––––––––––––––––––––––––––

DR Peak RMS Duration Track
––––––––––––––––––––––––––––––––––––––––
DR7 0.00 dB -8.31 dB 3:27 01-Getaway
DR7 -0.01 dB -8.03 dB 2:39 02-Mind Your Manners
DR7 0.00 dB -7.96 dB 3:07 03-My Father’s Son
DR7 0.00 dB -8.42 dB 5:41 04-Sirens
DR7 0.00 dB -9.01 dB 4:13 05-Lightning Bolt
DR7 0.00 dB -8.35 dB 5:22 06-Infallible
DR10 0.00 dB -12.23 dB 3:44 07-Pendulum
DR7 0.00 dB -9.03 dB 3:52 08-Swallowed Whole
DR8 0.00 dB -9.39 dB 3:47 09-Let The Records Play
DR8 0.00 dB -10.90 dB 3:04 10-Sleeping By Myself
DR7 0.00 dB -9.17 dB 3:52 11-Yellow Moon
DR13 -0.19 dB -16.22 dB 4:23 12-Future Days
––––––––––––––––––––––––––––––––––––––––

Number of tracks: 12
Official DR value: DR8

Samplerate: 44100 Hz
Channels: 2
Bits per sample: 24
Bitrate: 1526 kbps
Codec: FLAC
================================================================================


Thanks to the Original customer!