The Penguin Cafe Orchestra - A Brief History (2001) [Reissue 2003] PS3 ISO + FLAC {RE-UP}

Posted By: HDAtall
The Penguin Cafe Orchestra - A Brief History (2001) [Reissue 2003] PS3 ISO + FLAC {RE-UP}

The Penguin Cafe Orchestra - A Brief History (2001) [Reissue 2003]
PS3 Rip | SACD ISO | DSD64 2.0 > 1-bit/2.8224 MHz | 77:12 minutes | Scans included | 2,4 GB
or FLAC(converted with foobar2000 to tracks) 24bit/88,2 kHz | Full Scans included | 1,53 GB

The Penguin Cafe Orchestra (PCO) was a collective of performing musicians created by classically trained British guitarist, composer and arranger Simon Jeffes. The Penguin's sound is not easily categorized, but has elements of exuberant folk music and a minimalist aesthetic occasionally reminiscent of composers such as Philip Glass. The Penguin Cafe Orchestra recorded and performed for 24 years until Jeffes died of a brain tumour in 1997.

If you are in any doubt as to who The Penguin Café Orchestra are, think back to that quirky tune on the One2One advert made up of telephone dial tones and jerky violin ? Yes, that's them. Or more precisely, him; the Penguin Café Orchestra was founded in the mid 70s by one man, the late British composer Simon Jeffes, as a soundtrack for a fantasy café whose daily specials were the re-written laws of physics and music.

A former music student, Jeffes' dream - which came to him during a bout of food poisoning in the early 70s - was to write and perform music which drew on styles and cultures all over the world. The PCO was the realisation of this dream, and A Brief History shows off the huge range of influences which shaped the PCO's charmingly unique and eccentric sound. It's all in there, chirpy Celtic folk tunes, minimalist drones, choral chants; and through it all, an almost hypnotic rhythmic repetitiveness which brings a dreamy, sleepy quality to even the livelier tunes.

Today, Jeffes' music remains delightfully unclassifiable, whilst its accessibility makes it beloved of advertisers and Café del Mar chill-out album compilers alike. In the 70s however the PCO was radical, even revolutionary, catching the attention of Brian Eno who signed them to his Obscure label. Other evidence of Jeffes' eclecticism; brought in as producer by Malcolm McLaren to raise Adam and the Ants from punk to pop and chart stardom; arranged the strings on Sid Vicious' version of "My Way". Need I say more?

A review cannot really do credit to this album. The PCO is a legend, and the music on A Brief History tells the story of an immensely creative and joyous force in music. Irrepressibly chirpy, irresistibly quirky and undeniably original, here is music to bring sunshine to a Sunday morning.

Tracklist:

01. Bean Fields (Live)
02. Telephone And Rubber Band
03. Music For A Found Harmonium
04. Perpetuum Mobile
05. From The Colonies (Live)
06. Giles Farnaby's Dream (Live)
07. Surface Tension
08. Air Danser
09. Yodel 1
10. Numbers 1 - 4
11. Steady State
12. Paul's Dance
13. Prelude And Yodel (Live)
14. Heartwind
15. White Mischief
16. Dirt
17. Rosasolis
18. Organum
19. Lullaby

foobar2000 1.2.8 / Dynamic Range Meter 1.1.1

––––––––––––––––––––––––––––––––––––––––
Analyzed: Penguin Cafe Orchestra / A Brief History
––––––––––––––––––––––––––––––––––––––––

DR Peak RMS Duration Track
––––––––––––––––––––––––––––––––––––––––
DR10 -6.68 dB -19.33 dB 4:30 01-Bean Fields (Live)
DR15 -6.38 dB -23.06 dB 2:26 02-Telephone And Rubber Band
DR9 -8.84 dB -20.42 dB 3:39 03-Music For A Found Harmonium
DR10 -7.97 dB -20.01 dB 4:28 04-Perpetuum Mobile
DR11 -7.58 dB -20.81 dB 3:20 05-From The Colonies (Live)
DR10 -5.89 dB -18.67 dB 4:13 06-Giles Farnaby's Dream (Live)
DR9 -8.01 dB -20.80 dB 2:22 07-Surface Tension
DR12 -6.28 dB -20.49 dB 4:32 08-Air Danser
DR15 -6.58 dB -26.04 dB 4:09 09-Yodel 1
DR10 -7.34 dB -20.93 dB 6:53 10-Numbers 1 - 4
DR11 -6.32 dB -20.61 dB 3:36 11-Steady State
DR12 -10.50 dB -25.62 dB 1:44 12-Paul's Dance
DR11 -7.41 dB -21.53 dB 3:57 13-Prelude And Yodel (Live)
DR12 -6.98 dB -21.06 dB 4:11 14-Heartwind
DR14 -8.41 dB -29.10 dB 5:47 15-White Mischief
DR10 -7.09 dB -19.31 dB 4:48 16-Dirt
DR11 -6.12 dB -19.91 dB 4:13 17-Rosasolis
DR11 -6.40 dB -20.05 dB 4:27 18-Organum
DR11 -8.70 dB -24.17 dB 3:57 19-Lullaby
––––––––––––––––––––––––––––––––––––––––

Number of tracks: 19
Official DR value: DR11

Samplerate: 2822400 Hz / PCM Samplerate: 88200 Hz
Channels: 2
Bits per sample: 24
Bitrate: 5645 kbps
Codec: DSD64


Thanks to PS³SACD!
Uncompressed SACD ISO size > 1,52 GB