Tags
Language
Tags

Pentatonix - Pentatonix {Deluxe Edition} (2015) [Official Digital Download]

Posted By: HDV
Pentatonix - Pentatonix {Deluxe Edition} (2015) [Official Digital Download]

Pentatonix - Pentatonix (2015) [Deluxe Edition]
FLAC (tracks) 24-bit/44,1 kHz | Time - 54:04 minutes | 656 MB
Studio Master, Official Digital Download | Artwork: Front cover

"Pentatonix" is the fourth studio album by American a cappella group Pentatonix, which was released on October 16, 2015. This is the first release of the band to feature predominantly original material (the only covers being the cover of Shai's "If I Ever Fall in Love" and the bonus tracks on the deluxe version of the album). "Pentatonix" also marks the first time band members receive individual songwriting credits for the majority of the tracks. Pentatonix debuted atop the US Billboard 200 chart with 98,000 album-equivalent units, with the album being their first No. 1 album on the chart.

PTX’s fourth LP is their first to contain predominantly original material — a major turning point for any artist best known for covers, and especially so for one with a fervent fanbase already in place. Pentatonix is sweet, charming and filled with vocal talent, but it lacks any oomph to go with their well-honed chops. The lyrics are often cheesy, like on the unforgivably cliche-laden "Sing" ("I don't know what you've been told/But music make you lose control"), and musically, much of the album evokes Imagine Dragons-lite via tepid experimentations in EDM-ish pop-rock with a beatboxer instead of a laptop.

Tracklist:

01 - Na Na Na
02 - Can't Sleep Love
03 - Sing
04 - Misbehavin'
05 - Ref
06 - First Things First
07 - Rose Gold
08 - If I Ever Fall In Love
09 - Cracked
10 - Water
11 - Take Me Home
12 - New Year's Day
13 - Light In The Hallway
14 - Where Are Ü Now
15 - Cheerleader
16 - Lean On
17 - Can't Sleep Love

Analyzed: Pentatonix / Pentatonix (Deluxe Edition)
––––––––––––––––––––––––––––––––––––––––

DR Peak RMS Duration Track
––––––––––––––––––––––––––––––––––––––––
DR7 0.00 dB -8.86 dB 2:36 01-Na Na Na
DR6 0.00 dB -6.93 dB 2:53 02-Can't Sleep Love
DR5 0.00 dB -7.84 dB 2:57 03-Sing
DR8 0.00 dB -9.30 dB 3:43 04-Misbehavin'
DR7 0.00 dB -8.60 dB 3:14 05-Ref
DR8 0.00 dB -10.20 dB 2:41 06-First Things First
DR7 0.00 dB -11.41 dB 3:43 07-Rose Gold
DR7 0.00 dB -9.52 dB 3:14 08-If I Ever Fall In Love
DR7 0.00 dB -8.57 dB 2:54 09-Cracked
DR7 0.00 dB -9.88 dB 3:11 10-Water
DR12 -0.13 dB -14.30 dB 2:56 11-Take Me Home
DR7 0.00 dB -10.47 dB 3:38 12-New Year's Day
DR10 -1.33 dB -14.57 dB 4:15 13-Light In The Hallway
DR7 0.00 dB -9.75 dB 2:51 14-Where Are Ü Now
DR6 0.00 dB -8.75 dB 3:03 15-Cheerleader
DR6 0.00 dB -9.18 dB 2:41 16-Lean On
DR6 0.00 dB -7.03 dB 3:34 17-Can't Sleep Love
––––––––––––––––––––––––––––––––––––––––

Number of tracks: 17
Official DR value: DR7

Samplerate: 44100 Hz
Channels: 2
Bits per sample: 24
Bitrate: 1668 kbps
Codec: FLAC
================================================================================


Thanks to the Original customer!