Tags
Language
Tags

Pentatonix - That's Christmas To Me (2014) [Deluxe Edition 2015] (Official Digital Download)

Posted By: HDV
Pentatonix - That's Christmas To Me (2014) [Deluxe Edition 2015] (Official Digital Download)

Pentatonix - That's Christmas To Me (2014) [Deluxe Edition 2015]
FLAC (tracks) 24-bit/44,1 kHz | Time - 48:49 minutes | 373 MB
Studio Master, Official Digital Download | Artwork: Front cover

"That's Christmas to Me" is the third studio album by a cappella group Pentatonix. It is their sixth release overall and their second holiday release following their 2012 EP "PTXmas". It only features previously unreleased material. The album is also the highest charting holiday album by a group since 1962.

Christmas album from Vocal sensations Pentatonix - "That's Christmas To Me". The album named for an original holiday song penned by the group, the album includes a combination of classic holiday tracks, modern favorites and a one-of-a-kind holiday mash-up.

Pentatonix's second holiday-themed release, 2014's That's Christmas to Me, showcases more of the innovative a cappella group's electronic dance music-influenced vocal sound. The album comes on the heels of the group's other 2014 release, PTX, Vol. 3, and two years after the Yuletide EP PTXmas. Here, the former NBC Sing-Off season three champions perform a bevy of Christmas classics including "Hark! The Herald Angels Sing," "Dance of the Sugar Plum Fairy," "Silent Night," and others, as well as the newly minted title track original.

Tracklist:

01 - Hark! The Herald Angels Sing
02 - White Winter Hymnal
03 - Sleigh Ride
04 - Winter Wonderland Don't Worry Be Happy
05 - That's Christmas to Me
06 - Mary, Did You Know
07 - Dance of the Sugar Plum Fairy
08 - It's the Most Wonderful Time of the Year
09 - Santa Claus is Coming to Town
10 - Silent Night
11 - Let It Go (Bonus Track)
12 - Joy to the World
13 - Just For Now
14 - The First Noel
15 - Have Yourself a Merry Little Christmas
16 - Mary, Did You Know

Analyzed: Pentatonix / That's Christmas to Me (Deluxe Edition)
––––––––––––––––––––––––––––––––––––––––

DR Peak RMS Duration Track
––––––––––––––––––––––––––––––––––––––––
DR6 0.00 dB -8.49 dB 3:13 01-Hark! The Herald Angels Sing
DR11 -0.01 dB -13.04 dB 2:47 02-White Winter Hymnal
DR9 -0.11 dB -10.41 dB 2:17 03-Sleigh Ride
DR8 -0.01 dB -9.63 dB 3:27 04-Winter Wonderland Don't Worry Be Happy
DR9 -0.01 dB -11.75 dB 3:02 05-That's Christmas to Me
DR6 0.00 dB -9.50 dB 3:23 06-Mary, Did You Know
DR8 -0.01 dB -11.97 dB 2:07 07-Dance of the Sugar Plum Fairy
DR8 -0.01 dB -8.86 dB 3:05 08-It's the Most Wonderful Time of the Year
DR8 -0.01 dB -9.46 dB 2:42 09-Santa Claus is Coming to Town
DR9 -0.01 dB -12.21 dB 3:14 10-Silent Night
DR7 -0.01 dB -9.04 dB 3:26 11-Let It Go (Bonus Track)
DR6 -0.01 dB -6.96 dB 2:20 12-Joy to the World
DR8 -0.01 dB -9.66 dB 3:20 13-Just For Now
DR8 -0.01 dB -11.61 dB 3:40 14-The First Noel
DR7 -0.01 dB -8.67 dB 3:23 15-Have Yourself a Merry Little Christmas
DR6 0.00 dB -10.54 dB 3:23 16-Mary, Did You Know
––––––––––––––––––––––––––––––––––––––––

Number of tracks: 16
Official DR value: DR8

Samplerate: 44100 Hz
Channels: 2
Bits per sample: 24
Bitrate: 1236 kbps
Codec: FLAC
================================================================================


Thanks to the Original customer!