Phil Collins - No Jacket Required (1985/2013) [Official Digital Download]

Posted By: HDV
Phil Collins - No Jacket Required (1985/2013) [Official Digital Download]

Phil Collins - No Jacket Required (1985/2013)
FLAC (tracks) 24-bit/44,1 kHz | Time - 50:51 minutes | 570 MB
Studio Master, Official Digital Download | Artwork: Front cover

No Jacket Required is the third solo studio album by English singer-songwriter Phil Collins, the lead vocalist and drummer for the rock band Genesis. It features guest backing vocalists, including Helen Terry, Peter Gabriel and Sting. On release, the album was received favourably by the majority of music critics, although opinions have become more negative in subsequent decades and it has rarely been featured in "Best Albums of the 1980s" lists since. It won three Grammy Awards including for Album of the Year in 1986.

The winner of the 1985 Grammy for Pop Album of the Year, No Jacket Required found Phil Collins fully embracing horn-driven pop music, drum machines, and sentimental ballads over his previous darker and more dramatic solo material. The record established him as a major commercial force, and as one of the most recognizable voices of the 1980s. Although the major hits here, "Sussudio," "One More Night," "Who Said I Would," and "Don't Lose My Number" quickly came to sound dated, the album contains several standout tracks. "Long Long Way to Go," which features a cameo by Sting, is one of Collins' most effective ballads, while the pulsating "Take Me Home" utilizes the drama of "In the Air Tonight" on a more wistful track. "Only You Know and I Know" and "Inside Out," meanwhile, show an effective aggressive side to the singer. It's not a completely satisfying recording, but it is the best example of one of the most dominating and influential styles of the 1980s.

Tracklist:

01 - Sussudio
02 - Only You Know And I Know
03 - Long Long Way To Go
04 - I Don't Wanna Know
05 - One More Night
06 - Don't Lose My Number
07 - Who Said I Would
08 - Doesn't Anybody Stay Together Anymore
09 - Inside Out
10 - Take Me Home
11 - We Said Hello Goodbye

Analyzed: Phil Collins / No Jacket Required
––––––––––––––––––––––––––––––––––––––––

DR Peak RMS Duration Track
––––––––––––––––––––––––––––––––––––––––
DR15 -0.74 dB -17.89 dB 4:24 01-Sussudio
DR13 -1.70 dB -17.56 dB 4:22 02-Only You Know And I Know
DR12 -5.91 dB -21.48 dB 4:23 03-Long Long Way To Go
DR14 -0.05 dB -16.88 dB 4:16 04-I Don't Wanna Know
DR13 -4.23 dB -19.92 dB 4:49 05-One More Night
DR14 -2.01 dB -19.35 dB 4:49 06-Don't Lose My Number
DR14 -3.62 dB -19.22 dB 4:02 07-Who Said I Would
DR16 -2.34 dB -20.58 dB 4:19 08-Doesn't Anybody Stay Together Anymore
DR14 -3.48 dB -20.65 dB 5:16 09-Inside Out
DR14 -4.43 dB -22.30 dB 5:54 10-Take Me Home
DR12 -3.48 dB -20.83 dB 4:16 11-We Said Hello Goodbye
––––––––––––––––––––––––––––––––––––––––

Number of tracks: 11
Official DR value: DR14

Samplerate: 44100 Hz
Channels: 2
Bits per sample: 24
Bitrate: 1370 kbps
Codec: FLAC
================================================================================


Thanks to the Original customer!