Tags
Language
Tags
December 2022
Su Mo Tu We Th Fr Sa
27 28 29 30 1 2 3
4 5 6 7 8 9 10
11 12 13 14 15 16 17
18 19 20 21 22 23 24
25 26 27 28 29 30 31

Phil Woods Quintet - You And The Night And The Music (1994) [Japan 2016] SACD ISO + DSD64 + Hi-Res FLAC

Posted By: HDAtall
Phil Woods Quintet - You And The Night And The Music (1994) [Japan 2016] SACD ISO + DSD64 + Hi-Res FLAC

Phil Woods Quintet - You And The Night And The Music (1994) [Japan 2016]
SACD Rip | SACD ISO | DSD64 2.0 > 1-bit/2.8224 MHz | 61:41 minutes | Front/Rear Covers | 1,92 GB
or DSD64 2.0 (from SACD-ISO to Tracks.dsf) > 1-bit/2.8224 MHz | Front/Rear Covers | 1,71 GB
or FLAC (carefully converted & encoded to tracks) 24bit/48 kHz | Front/Rear Covers | 809 MB

The Phil Woods Quintet shines on this collection of standards from the movies, but their fresh approach to each of these very familiar songs is what makes this release special.

It's little surprise that the Phil Woods Quintet shines during this collection of standards from the movies, but their fresh approach to each of these very familiar songs is what makes this release special. With charts by the leader, trumpeter Brian Lynch, and pianist Jim McNeely, the group devours each of the nine pieces with strong solos and beautiful interplay to boot. "You and the Night and the Music" gets things off to a brisk beginning, with bassist Steve Gilmore initially playing the melody with tasty unison licks behind him. Both of Branislau Kaper's songs ("Invitation" and "On Green Dolphin Street") are old warhorses that would seem to be in danger of overexposure, but both pieces feature off-of-center arrangements that make them stand out from the slew of recordings available of them. The only reason to hesitate to purchase this Japanese disc on the Venus label is that it was reissued the following year by Evidence with an additional track ("Over the Rainbow") which was omitted from the original release. In any case, it is an essential album for fans of the great Phil Woods.

Tracklist:

01. You And The Night And The Music
02. His Eyes, Her Eyes
03. Invitation
04. I'll Never Stop Loving You
05. On Green Dolphin Street
06. Laura
07. You Stepped Out Of A Dream
08. Flying Down To Rio
09. An Affair To Remember
10. Over The Rainbow

Personnel
Phil Woods - alto sax
Brian Lynch - trumpet
Jim McNeely - piano
Steve Gilmore - bass
Bill Goodwin - drums

Produced, Mixed & Mastered by Tetsuo Hara. Engineered by Jim Anderson.
Recorded on December, 17-18, 1993 at Clinton Studio "A" in New York.
Venus Hyper Magnum Sound Direct Mix. VENUS Japan # VHGD-182.

foobar2000 1.6.8 / Dynamic Range Meter 1.1.1

––––––––––––––––––––––––––––––––––––––––
Analyzed: PHIL WOODS QUINTET / You And The Night And The Music
––––––––––––––––––––––––––––––––––––––––

DR Peak RMS Duration Track
––––––––––––––––––––––––––––––––––––––––
DR10 -3.70 dB -17.14 dB 6:06 01-You And The Night And The Music
DR10 -4.36 dB -16.88 dB 5:13 02-His Eyes, Her Eyes
DR10 -3.93 dB -16.36 dB 7:22 03-Invitation
DR11 -4.40 dB -16.89 dB 6:09 04-I'll Never Stop Loving You
DR11 -4.24 dB -17.24 dB 5:46 05-On Green Dolphin Street
DR11 -4.38 dB -17.91 dB 3:21 06-Laura
DR12 -4.38 dB -18.38 dB 6:23 07-You Stepped Out Of A Dream
DR10 -4.21 dB -15.55 dB 5:20 08-Flying Down To Rio
DR12 -4.44 dB -18.49 dB 8:15 09-An Affair To Remember
DR11 -3.90 dB -16.82 dB 7:44 10-Over The Rainbow
––––––––––––––––––––––––––––––––––––––––

Number of tracks: 10
Official DR value: DR11

Samplerate: 2822400 Hz / PCM Samplerate: 176400 Hz
Channels: 2
Bits per sample: 1
Bitrate: 5645 kbps
Codec: DSD64


Thanks to jazzyman!
Uncompressed SACD ISO size > 2,48 GB
>