Phish - Junta (1989/2012) [Official Digital Download 24bit/192kHz]

Posted By: HDV
Phish - Junta (1989/2012) [Official Digital Download 24bit/192kHz]

Phish - Junta (1989/2012)
FLAC (tracks) 24 bit/192 kHz | Time - 85:08 minutes | 3,4 GB
Studio Master, Official Digital Download | Artwork: Digital booklet

Exhilarating rock phenoms, Phish unleashed their debut platinum-selling studio venture with Junta. A bold statement of the ensemble’s arrival, the album helped cultivate an endearing following. The album is a seamless blend of rock, folk, country, bluegrass, funk and jazz showcasing the band’s ingenious storytelling. Centerpieces on the album include “Fluffhead”, “You Enjoy Myself” and “Divided Sky”. Heralded as the band’s definitive recording, the album is now available as a pristine hi-res download.

With great sound and better playing, Phish's debut Junta is highly recommended whether you're starting to discover Phish or are backing up to the beginning. It may be a bit long-winded and unfocused, yet it establishes their dedication to musical exploration effectively – not to mention the typical wild and woolly Phish humor spilling out all over the lengthy tracks.

Tracklist:

01 - Fee
02 - You Enjoy Myself
03 - Esther
04 - Golgi Apparatus
05 - Foam
06 - Dinner And A Movie
07 - Divided Sky
08 - David Bowie
09 - Fluffhead/ Fluff's Travels
10 - Contact

Analyzed: Phish / Junta
––––––––––––––––––––––––––––––––––––––––

DR Peak RMS Duration Track
––––––––––––––––––––––––––––––––––––––––
DR14 -0.55 dB -17.43 dB 5:21 01-Fee
DR14 0.00 dB -16.07 dB 9:48 02-You Enjoy Myself
DR12 -0.58 dB -16.05 dB 9:19 03-Esther
DR13 0.00 dB -15.89 dB 4:35 04-Golgi Apparatus
DR12 -0.29 dB -16.38 dB 6:49 05-Foam
DR13 -0.43 dB -16.06 dB 3:41 06-Dinner And A Movie
DR12 0.00 dB -15.91 dB 11:54 07-Divided Sky
DR13 0.00 dB -15.84 dB 10:57 08-David Bowie
DR13 -0.92 dB -16.99 dB 14:59 09-Fluffhead/ Fluff's Travels
DR14 -0.61 dB -18.61 dB 7:46 10-Contact
––––––––––––––––––––––––––––––––––––––––

Number of tracks: 10
Official DR value: DR13

Samplerate: 192000 Hz
Channels: 2
Bits per sample: 24
Bitrate: 5257 kbps
Codec: FLAC
================================================================================


Thanks to the Original customer!