Phish - Lawn Boy (1990/2013) [Official Digital Download 24bit/192kHz]

Posted By: HDV
Phish - Lawn Boy (1990/2013) [Official Digital Download 24bit/192kHz]

Phish - Lawn Boy (1990/2013)
FLAC (tracks) 24 bit/192 kHz | Time - 47:45 minutes | 1,92 GB
Studio Master, Official Digital Download | Artwork: Front cover

"Lawn Boy" is Phish’s Gold-certified sophomore masterpiece. This undeniable classic fused the band’s trademark progressive rock with elements of bluegrass and jazz. Lawn Boy features fan-favorites from the band’s repertoire including “Reba”, “The Squirming Coil”, “Split Open And Melt” and “Bouncing Around The Room”. It is one of the band’s greatest recordings and a favorite among Phish-heads.

This album is relaxed, friendly, and a lot of fun. It is their true statement of purpose, capturing Trey Anastasio's unique visions in their rawest form. "Reba," with its absurd lyrics, intricate design, and renegade momentum is one of their best moments, neatly summarizing the band's philosophy in 12 minutes. Anastasio may have played with greater force and potency later on, but his creative spark was rarely brighter than here, and he proves himself to be not only a student, but a master of many divergent styles.

Tracklist:

01 - The Squirming Coil
02 - Reba
03 - My Sweet One
04 - Split Open And Melt
05 - The Oh Kee Pa Ceremony
06 - Bathtub Gin
07 - Run Like An Antelope
08 - Lawn Boy
09 - Bouncing Around The Room

Analyzed: Phish / Lawn Boy
––––––––––––––––––––––––––––––––––––––––

DR Peak RMS Duration Track
––––––––––––––––––––––––––––––––––––––––
DR12 -2.35 dB -18.68 dB 6:02 01-The Squirming Coil
DR13 0.00 dB -16.59 dB 12:26 02-Reba
DR12 -4.24 dB -19.59 dB 2:09 03-My Sweet One
DR11 -0.26 dB -16.35 dB 4:42 04-Split Open And Melt
DR11 -3.95 dB -17.95 dB 1:41 05-The Oh Kee Pa Ceremony
DR15 -0.82 dB -16.89 dB 4:29 06-Bathtub Gin
DR12 0.00 dB -15.62 dB 9:50 07-Run Like An Antelope
DR13 -3.18 dB -18.27 dB 2:31 08-Lawn Boy
DR14 0.00 dB -15.95 dB 3:54 09-Bouncing Around The Room
––––––––––––––––––––––––––––––––––––––––

Number of tracks: 9
Official DR value: DR12

Samplerate: 192000 Hz
Channels: 2
Bits per sample: 24
Bitrate: 5570 kbps
Codec: FLAC
================================================================================


Thanks to the Original customer!