Pink Floyd - The Later Years: 1987-2019 (2019) [Official Digital Download 24/96]

Posted By: El Misha
Pink Floyd - The Later Years: 1987-2019 (2019) [Official Digital Download 24/96]

Pink Floyd - The Later Years: 1987-2019 (2019)
FLAC (tracks) 24-bit/96 kHz | Time - 01:19:46 | 1.69 GB
Studio Master, Official Digital Download | Artwork: Front cover

Pink Floyd-the band was one of the most famous in history. 12 track highlights from the box set. Includes 3 new mixes from 'A Momentary Lapse of Reason', 3 new mixes from 'Delicate Sound of Thunder', 3 tracks from Knebworth 1990, 2 unreleased studio recordings from 'The Division Bell' and a 1994 tour rehearsal track.



Tracklist:

01. Shine On You Crazy Diamond (Pts. 1-5) (Live at Knebworth 1990, 2019 Mix) (11:17)
02. Marooned Jam (1994 Recording) (3:19)
03. One Slip (2019 Remix) (5:10)
04. Lost For Words (Tour Rehearsal 1994) (5:35)
05. Us And Them (Live, Delicate Sound Of Thunder, 2019 Remix) (7:40)
06. Comfortably Numb (Live at Knebworth 1990, 2019 Mix) (7:43)
07. Sorrow (2019 Remix) (8:46)
08. Learning To Fly (Live, Delicate Sound Of Thunder, 2019 Remix) (5:20)
09. High Hopes (Early Version, 1994 Recording) (6:56)
10. On The Turning Away (2019 Remix) (5:41)
11. Wish You Were Here (Live at Knebworth 1990, 2019 Mix) (4:44)
12. Run Like Hell (Live, Delicate Sound Of Thunder, 2019 Remix) (7:44)

foobar2000 1.3.17 / Dynamic Range Meter 1.1.1
log date: 2019-12-01 17:27:25

––––––––––––––––––––––––––––––––––––––––
Analyzed: Pink Floyd / The Later Years 1987-2019
––––––––––––––––––––––––––––––––––––––––

DR Peak RMS Duration Track
––––––––––––––––––––––––––––––––––––––––
DR11 -0.39 dB -14.19 dB 11:17 01-Shine On You Crazy Diamond (Parts 1-5) (Live at Knebworth 1990 (2019 Mix))
DR12 -0.31 dB -13.97 dB 3:19 02-Marooned Jam (1994 Recording)
DR9 -0.31 dB -12.16 dB 5:10 03-One Slip (Remix 2019)
DR12 -0.31 dB -14.32 dB 5:34 04-Lost for Words (Tour Rehearsal 1994)
DR9 -0.50 dB -13.53 dB 7:40 05-Us and Them (Live, Delicate Sound of Thunder (2019 Remix))
DR10 -0.45 dB -12.83 dB 7:43 06-Comfortably Numb (Live at Knebworth 1990 (2019 Mix))
DR8 -0.31 dB -10.07 dB 8:47 07-Sorrow (Remix 2019)
DR10 -0.50 dB -12.23 dB 5:20 08-Learning to Fly (Live, Delicate Sound of Thunder (2019 Remix))
DR11 -0.31 dB -13.67 dB 6:56 09-High Hopes (Early Version, 1994 Recording)
DR8 -0.31 dB -11.47 dB 5:41 10-On the Turning Away (Remix 2019)
DR12 -0.63 dB -15.72 dB 4:44 11-Wish You Were Here (Live at Knebworth 1990 (2019 Mix))
DR7 -0.50 dB -9.93 dB 7:43 12-Run Like Hell (Live, Delicate Sound of Thunder (2019 Remix))
––––––––––––––––––––––––––––––––––––––––

Number of tracks: 12
Official DR value: DR10

Samplerate: 96000 Hz
Channels: 2
Bits per sample: 24
Bitrate: 2966 kbps
Codec: FLAC
================================================================================


Thanks to the Original customer!