Pink Floyd - The Division Bell (1994/2014) [20th Anniversary Edition] (Official Digital Download 24bit/96kHz)

Posted By: HDV
Pink Floyd - The Division Bell (1994/2014) [20th Anniversary Edition] (Official Digital Download 24bit/96kHz)

Pink Floyd - The Division Bell (1994/2014) [20th Anniversary Edition]
FLAC (tracks) 24 bit/96kHz | Time - 66:31 minutes | 1,35 GB
Official Digital Download - Source: DL code (Vinyl) | Digital booklet

"The Division Bell" is the fourteenth studio album by the English progressive rock band Pink Floyd. This is the second Pink Floyd album recorded without founding member Roger Waters, the album was written mostly by guitarist and singer David Gilmour and keyboardist Richard Wright. Recording took place in locations including the band's Britannia Row Studios and Gilmour's houseboat, Astoria. The production team included longtime Pink Floyd collaborators such as producer Bob Ezrin, engineer Andy Jackson, saxophonist Dick Parry, and bassist Guy Pratt. The Division Bell received mixed reviews, but reached number one in more than 10 countries, including the UK and the US. It was certified double platinum in the US the year it was released, and triple platinum in 1999. Unused material from the Division Bell sessions became part of Pink Floyd's next album, "The Endless River" (2014).

The second post-Roger Waters Pink Floyd album is less forced and more of a group effort than A Momentary Lapse of Reason – keyboard player Richard Wright is back to full bandmember status and has co-writing credits on five of the 11 songs, even getting lead vocals on "Wearing the Inside Out." Some of David Gilmour's lyrics (co-written by Polly Samson and Nick Laird-Clowes of the Dream Academy) might be directed at Waters, notably "Lost for Words" and "A Great Day for Freedom," with its references to "the wall" coming down, although the more specific subject is the Berlin Wall and the fall of Communism. In any case, there is a vindictive, accusatory tone to songs such as "What Do You Want From Me" and "Poles Apart," and the overarching theme, from the album title to the graphics to the "I-you" pronouns in most of the lyrics, has to do with dichotomies and distinctions, with "I" always having the upper hand. Musically, Gilmour, Nick Mason, and Wright have largely turned the clock back to the pre-Dark Side of the Moon Floyd, with slow tempos, sustained keyboard chords, and guitar solos with a lot of echo.

Tracklist:

01 - Cluster One
02 - What Do You Want From Me
03 - Poles Apart
04 - Marooned
05 - A Great Day For Freedom
06 - Wearing The Inside Out
07 - Take It Back
08 - Coming Back To Life
09 - Keep Talking
10 - Lost For Words
11 - High Hopes

Analyzed: Pink Floyd / The Division Bell [2014 Remaster]
––––––––––––––––––––––––––––––––––––––––

DR Peak RMS Duration Track
––––––––––––––––––––––––––––––––––––––––
DR12 -1.90 dB -18.73 dB 6:02 01-Cluster One
DR8 -0.05 dB -10.62 dB 4:22 02-What Do You Want From Me
DR9 -0.01 dB -12.45 dB 7:03 03-Poles Apart
DR11 -0.21 dB -14.74 dB 5:30 04-Marooned
DR10 -0.13 dB -13.74 dB 4:17 05-A Great Day For Freedom
DR10 -1.59 dB -15.53 dB 6:49 06-Wearing The Inside Out
DR9 0.00 dB -11.92 dB 6:13 07-Take It Back
DR10 0.00 dB -12.90 dB 6:18 08-Coming Back To Life
DR10 0.00 dB -12.28 dB 6:11 09-Keep Talking
DR11 -0.07 dB -13.94 dB 5:14 10-Lost For Words
DR11 -0.01 dB -14.08 dB 8:31 11-High Hopes
––––––––––––––––––––––––––––––––––––––––

Number of tracks: 11
Official DR value: DR10

Samplerate: 96000 Hz
Channels: 2
Bits per sample: 24
Bitrate: 2659 kbps
Codec: FLAC
================================================================================


Thanks to the Original customer!

Pink Floyd - The Endless River (2014) [Deluxe Edition]
Pink Floyd - The Early Years 1965-1972