Pink Floyd - Wish You Were Here (1975) [Reissue 2011] MCH PS3 ISO + DSD64 + Hi-Res FLAC

Posted By: HDAtall
Pink Floyd - Wish You Were Here (1975) [Reissue 2011] MCH PS3 ISO + DSD64 + Hi-Res FLAC

Pink Floyd - Wish You Were Here (1975) [Reissue 2011]
PS3 Rip | SACD ISO | DSD64 2.0 & DST64 5.1 > 1-bit/2.8224 MHz | 44:19 minutes | Scans included | 3,55 GB
or DSD64 2.0 Stereo (from SACD-ISO to Tracks.dsf) > 1-bit/2.8224 MHz | Full Scans included | 1,34 GB
or FLAC 2.0(carefully converted & encoded to tracks) 24bit/96 kHz | 44:13 | Scans included | 1,08 GB
Features Stereo and Multichannel Surround Sound | Analogue Productions/EMI Records # 5099952243325

Pink Floyd followed the commercial breakthrough of Dark Side of the Moon with Wish You Were Here, a loose concept album about and dedicated to their founding member Syd Barrett. The record unfolds gradually, as the jazzy textures of "Shine on You Crazy Diamond" reveal its melodic motif, and in its leisurely pace, the album shows itself to be a warmer record than its predecessor. Musically, it's arguably even more impressive, showcasing the group's interplay and David Gilmour's solos in particular. And while it's short on actual songs, the long, winding soundscapes are constantly enthralling.

Tracklist:

01. Shine On You Crazy Diamond (Parts I - V)
02. Welcome To The Machine
03. Have A Cigar
04. Wish You Were Here
05. Shine On You Crazy Diamond (Parts VI - IX)

5.1 Surround Mix by James Guthrie. Assistant engineer: Joel Plante.
5.1 and Stereo Mastering by Doug Sax and James Guthrie. Assisted by Joel Plante and Gus Skinas.
Mixed and Mastered at Das Boot Recording. DSD authoring for SACD by Gus Skinas.

foobar2000 1.6.2 / Dynamic Range Meter 1.1.1

––––––––––––––––––––––––––––––––––––––––
Analyzed: Pink Floyd / Wish You Were Here
––––––––––––––––––––––––––––––––––––––––

DR Peak RMS Duration Track
––––––––––––––––––––––––––––––––––––––––
DR13 -4.03 dB -23.80 dB 13:36 01-Shine On You Crazy Diamond (Parts I - V)
DR14 -3.92 dB -22.07 dB 7:26 02-Welcome To The Machine
DR12 -4.00 dB -20.50 dB 5:08 03-Have A Cigar
DR12 -5.16 dB -25.48 dB 5:34 04-Wish You Were Here
DR13 -3.96 dB -23.26 dB 12:35 05-Shine On You Crazy Diamond (Parts VI - IX)
––––––––––––––––––––––––––––––––––––––––

Number of tracks: 5
Official DR value: DR13

Samplerate: 2822400 Hz / PCM Samplerate: 176400 Hz
Channels: 6
Bits per sample: 1
Bitrate: 16934 kbps
Codec: DST64
================================================================================

––––––––––––––––––––––––––––––––––––––––
Analyzed: Pink Floyd / Wish You Were Here
––––––––––––––––––––––––––––––––––––––––

DR Peak RMS Duration Track
––––––––––––––––––––––––––––––––––––––––
DR12 -5.98 dB -21.64 dB 13:31 01-Shine On You Crazy Diamond (Parts I - V)
DR11 -5.90 dB -21.32 dB 7:25 02-Welcome To The Machine
DR12 -6.25 dB -20.42 dB 5:08 03-Have A Cigar
DR12 -6.33 dB -23.37 dB 5:33 04-Wish You Were Here
DR12 -6.27 dB -21.34 dB 12:36 05-Shine On You Crazy Diamond (Parts VI - IX)
––––––––––––––––––––––––––––––––––––––––

Number of tracks: 5
Official DR value: DR12

Samplerate: 2822400 Hz / PCM Samplerate: 176400 Hz
Channels: 2
Bits per sample: 1
Bitrate: 5645 kbps
Codec: DSD64


Thanks to bambasm!
Uncompressed SACD ISO size > 3,77 GB
>