Porter Wagoner - The Thin Man From West Plains (1965/2015) [Official Digital Download 24-bit/96kHz]

Posted By: HDV
Porter Wagoner - The Thin Man From West Plains (1965/2015) [Official Digital Download 24-bit/96kHz]

Porter Wagoner - The Thin Man From West Plains (1965/2015)
FLAC (tracks) 24-bit/96 kHz | Time - 27:19 minutes | 622 MB
Studio Master, Official Digital Download | Artwork: Front cover

Porter Wayne Wagoner was an American country music singer known for his flashy Nudie and Manuel suits and blond pompadour. In 1967, he introduced singer Dolly Parton on his television show, and they were a well-known vocal duo throughout the late 1960s and early 1970s. Known as Mr. Grand Ole Opry, Wagoner charted 81 singles from 1954–1983. He was elected to the Country Music Hall of Fame in 2002. "The Thin Man From West Plains" have been recorded in Nashville, and released via RCA Victor label.

Tracklist:

01 - Another Day, Another Dollar
02 - Lovin' Lies
03 - I'm Gonna Feed You Now
04 - My Friends Are Gonna Be Strangers
05 - Tomorrow We'll Retire
06 - Sorrow on the Rocks
07 - My Baby Turns the Lights on Uptown
08 - The Bride's Bouquet
09 - Dim Lights, Thick Smoke and Loud Music
10 - I Couldn't Care Less
11 - Memories from the Past
12 - I'll Go Down Swinging

Produced by Chet Atkins.
Recorded at RCA Victor Studios, Nashville, TN.

Analyzed: Porter Wagoner / The Thin Man from West Plains
––––––––––––––––––––––––––––––––––––––––

DR Peak RMS Duration Track
––––––––––––––––––––––––––––––––––––––––
DR11 -2.07 dB -15.24 dB 2:06 01-Another Day, Another Dollar
DR11 -1.63 dB -14.37 dB 2:13 02-Lovin' Lies
DR11 -1.97 dB -14.86 dB 2:10 03-I'm Gonna Feed You Now
DR11 -1.72 dB -15.16 dB 2:19 04-My Friends Are Gonna Be Strangers
DR13 -2.38 dB -18.13 dB 2:39 05-Tomorrow We'll Retire
DR11 -1.05 dB -14.55 dB 2:01 06-Sorrow on the Rocks
DR10 -1.58 dB -14.26 dB 2:33 07-My Baby Turns the Lights on Uptown
DR11 -1.87 dB -15.56 dB 2:33 08-The Bride's Bouquet
DR12 -2.51 dB -16.99 dB 2:15 09-Dim Lights, Thick Smoke and Loud Music
DR11 -3.08 dB -16.45 dB 1:53 10-I Couldn't Care Less
DR11 -2.18 dB -15.33 dB 2:16 11-Memories from the Past
DR11 -1.78 dB -15.71 dB 2:23 12-I'll Go Down Swinging
––––––––––––––––––––––––––––––––––––––––

Number of tracks: 12
Official DR value: DR11

Samplerate: 96000 Hz
Channels: 2
Bits per sample: 24
Bitrate: 3067 kbps
Codec: FLAC
================================================================================


Thanks to the Original customer!