Press To Meco - Here's To The Fatigue (2018) [Official Digital Download 24-bit/96kHz]

Posted By: HDV
Press To Meco - Here's To The Fatigue (2018)  [Official Digital Download 24-bit/96kHz]

Press To Meco - Here's To The Fatigue (2018)
FLAC (tracks) 24-bit/96 kHz | Time - 40:35 minutes | 1010 MB
Studio Master, Official Digital Download | Artwork: Digital booklet

A few years after the release of their debut album, "Good Intent", British alternative rock trio Press To MECO are back at it again with their sophomore effort, "Here’s To The Fatigue". "A powerful amalgamation of angular riffs and pop sensibilities" - wrote Rocksound; "Billy Talent, Pulled Apart By Horses and Lower Than Atlantis roughly run through the progressive grinder". - Ourzone.


A notable factor of the band and their music is, not only do they all sing the tracks, instead of one main vocalist, but they also harmonise with each other; this works well with their voices, blending together around the instruments, and creating a warm sound that fits with each song. The use of harmonization within songs like “If All Your Parts Don’t Make A Whole,” “Skip The Crawl,” and “A Quick Fix” showcase how diverse the vocals can be together and on their own, all working well. Another part of the album that works well is the instrumentation. The complex drumming from Lewis Williams works well to drive many of the songs, and make a juxtaposition from the simple, but by no means any less great, guitar and bass parts. Each part fits the theme of each song, for example, in the song “Howl”, the driving bass from Adam Roffey, and the great riff from Luke Caley come together to create an unforgettable track. Finally, each song have fantastic lyrics that resonate with each song, covering a diverse range of themes, and matching each instrumental within the song which, with some of the songs, allows the listener to hear the lyrics, for example, in “If All Your Parts Don’t Make A Whole”, the song uses the lyrics “I see disaster right round the corner”, and “find comfort in being alone” to show how it’s ok not to be perfect, something that can be relatable to the listener, and especially the band’s audience. If there were to be any criticisms, the intro to “A Place In It All” feels off rhythmically when the drums come in; it’s initially difficult to know where the beat is at the beginning, but it is a good song once all the instruments are in, but it does feel weird for that opening minute or so.

Overall, this album was worth the wait, as it will easily please fans who have been waiting since 2015, and something that will also please newcomers to the band, people who had never heard of them will enjoy this; the album does feel like a breath of fresh air in the alt-rock genre, and is enjoyable from start to finish.

Tracklist:

01 - Intro
02 - Familiar Ground
03 - Here's to the Fatigue
04 - If All Your Parts Don't Make a Whole
05 - Skip the Crawl
06 - A Place in it All
07 - Howl
08 - A Quick Fix
09 - Itchy Fingers
10 - The Things That We Don't Talk About
11 - White Knuckling

Analyzed: Press to Meco / Here's to the Fatigue
––––––––––––––––––––––––––––––––––––––––

DR Peak RMS Duration Track
––––––––––––––––––––––––––––––––––––––––
DR7 -0.70 dB -10.38 dB 0:42 01-Intro
DR5 -0.70 dB -6.78 dB 3:39 02-Familiar Ground
DR5 -0.70 dB -6.79 dB 4:01 03-Here's to the Fatigue
DR5 -0.70 dB -6.87 dB 2:57 04-If All Your Parts Don't Make a Whole
DR5 -0.70 dB -7.08 dB 3:47 05-Skip the Crawl
DR5 -0.70 dB -8.31 dB 4:20 06-A Place in it All
DR5 -0.70 dB -6.48 dB 3:34 07-Howl
DR5 -0.70 dB -6.71 dB 3:36 08-A Quick Fix
DR5 -0.70 dB -7.06 dB 4:32 09-Itchy Fingers
DR5 -0.70 dB -6.54 dB 4:01 10-The Things That We Don't Talk About
DR5 -0.70 dB -8.09 dB 5:26 11-White Knuckling
––––––––––––––––––––––––––––––––––––––––

Number of tracks: 11
Official DR value: DR5

Samplerate: 96000 Hz
Channels: 2
Bits per sample: 24
Bitrate: 3082 kbps
Codec: FLAC
================================================================================


Thanks to the Original customer!