Quartetto Italiano - Ravel: String Quartet - Stravinsky: Three Pieces for String Quartet (2021) [Of. Digital Download 24/192]

Posted By: delpotro
Quartetto Italiano - Ravel: String Quartet - Stravinsky: Three Pieces for String Quartet (2021) [Of. Digital Download 24/192]

Quartetto Italiano - Ravel: String Quartet - Stravinsky: Three Pieces for String Quartet (2021)
FLAC (tracks) 24-bit/192 kHz | Front Cover | Time - 37:30 minutes | 1,36 GB
Classical | Label: Warner Classics, Official Digital Download

Historical recordings: The ensemble's confidently-chosen name made it clear from the outset that the Quartetto Italiano saw itself not simply as an Italian string quartet among many, but as the authoritative one. The ensemble was soon recognized as a pioneer of Italian chamber music culture following the Second World War. Through their tireless obsession with detail, in-depth exploration of the works' musical expression, and the remarkable homogeneity of their quartet sound, the Quartetto Italiano conquered a firm place in the top league of leading string quartets over the first two decades of their career.

Tracklist:
1. Ravel: String Quartet in F Major, M. 35: I. Allegro moderato. Très doux (09:09)
2. Ravel: String Quartet in F Major, M. 35: II. Assez vif. Très rythmé (06:51)
3. Ravel: String Quartet in F Major, M. 35: III. Très lent (09:09)
4. Ravel: String Quartet in F Major, M. 35: IV. Vif et agité (05:52)
5. Stravinsky: 3 Pieces for String Quartet: No. 1 (00:58)
6. Stravinsky: 3 Pieces for String Quartet: No. 2 (02:01)
7. Stravinsky: 3 Pieces for String Quartet: No. 3 (03:27)

foobar2000 1.4.1 / Dynamic Range Meter 1.1.1
log date: 2021-06-18 11:51:11

––––––––––––––––––––––––––––––––––––––––
Analyzed: Quartetto Italiano / Ravel: String Quartet - Stravisnky: Three Pieces for String Quartet
––––––––––––––––––––––––––––––––––––––––

DR Peak RMS Duration Track
––––––––––––––––––––––––––––––––––––––––
DR14 -4.20 dB -24.15 dB 9:10 01-Ravel: String Quartet in F Major, M. 35: I. Allegro moderato. Très doux
DR16 -2.33 dB -24.59 dB 6:51 02-Ravel: String Quartet in F Major, M. 35: II. Assez vif. Très rythmé
DR15 -4.23 dB -26.22 dB 9:09 03-Ravel: String Quartet in F Major, M. 35: III. Très lent
DR14 -1.22 dB -21.85 dB 5:53 04-Ravel: String Quartet in F Major, M. 35: IV. Vif et agité
DR12 -3.41 dB -17.96 dB 0:59 05-Stravinsky: 3 Pieces for String Quartet: No. 1
DR14 -0.88 dB -19.44 dB 2:01 06-Stravinsky: 3 Pieces for String Quartet: No. 2
DR14 -6.88 dB -26.32 dB 3:28 07-Stravinsky: 3 Pieces for String Quartet: No. 3
––––––––––––––––––––––––––––––––––––––––

Number of tracks: 7
Official DR value: DR14

Samplerate: 192000 Hz
Channels: 2
Bits per sample: 24
Bitrate: 5219 kbps
Codec: FLAC
================================================================================


Thanks to the Original customer!