Tags
Language
Tags

The Quartetto Italiano - Schubert: String Quartets Nos 14 & 13 (1980+77) [Esoteric Japan 2017] PS3 ISO + Hi-Res FLAC

Posted By: HDAtall
The Quartetto Italiano - Schubert: String Quartets Nos 14 & 13 (1980+77) [Esoteric Japan 2017] PS3 ISO + Hi-Res FLAC

Quartetto Italiano - Schubert: String Quartets Nos. 13 "Rosamunde" & 14 "Death and the Maiden" (1980+1977)
PS3 Rip | SACD ISO | DSD64 2.0 > 1-bit/2.8224 MHz | 73:00 minutes | Scans included | 1,95 GB
or FLAC Stereo (converted with foobar2000 to tracks) 24bit/96 kHz | Scans included | 1,58 GB
Japanese SACD Reissue 2017 | Decca/Esoteric Company # ESSD-90170

The Quartetto Italiano is regarded as one of the finest string quartets of the twentieth century. The group generally focused on quartet-only repertory, avoiding performance with guest artists of quintets and other larger compositions. This Japanese reissue features Franz Schubert's String Quartets No. 13 "Rosamunde" & No. 14 "Death and the Maiden", recorded in 1980 & 1977 respectively.

Tracklist:

01. I. Allegro [String Quartet No.14 in D minor, D.810 "Death and the Maiden"]
02. II. Andante con moto [String Quartet No.14 in D minor, D.810 "Death and the Maiden"]
03. III. Scherzo (Allegro molto) [String Quartet No.14 in D minor, D.810 "Death and the Maiden"]
04. IV. Presto [String Quartet No.14 in D minor, D.810 "Death and the Maiden"]
05. I. Allegro ma non troppo [String Quartet No.13 in A minor, D.804 "Rosamunde"]
06. II. Andante [String Quartet No.13 in A minor, D.804 "Rosamunde"]
07. III. Menuetto (Allegretto) [String Quartet No.13 in A minor, D.804 "Rosamunde"]
08. IV. Allegro moderato [String Quartet No.13 in A minor, D.804 "Rosamunde"]

Personnel
Elisa Pegreffi - violin
Paolo Borciani - violin
Franco Rossi - violoncello
Dino Asciolla - viola on "1-4"
Piero Farulli - viola on "5-8"

Recorded on January 15-28, 1976 [No 13] & October 21-24, 1979 [No 14] at Musica Théâtre, Salle de Musique, La Chaux-de-Fonds.
Re-mastering Engineer: Kazuie Sugimoto (JVC Mastering Center Daikanyama Studio)

foobar2000 1.6.1 / Dynamic Range Meter 1.1.1

––––––––––––––––––––––––––––––––––––––––
Analyzed: Quartetto Italiano / Schubert: String Quartets Nos.13 "Rosamunde" & 14 "Death and the Maiden"
––––––––––––––––––––––––––––––––––––––––

DR Peak RMS Duration Track
––––––––––––––––––––––––––––––––––––––––
DR14 -5.25 dB -25.27 dB 12:40 01-1. Allegro [String Quartet No.14 in D minor, D.810 "Death and the Maiden"]
DR14 -5.44 dB -26.99 dB 13:44 02-2. Andante con moto [String Quartet No.14 in D minor, D.810 "Death and the Maiden"]
DR14 -6.56 dB -24.86 dB 4:05 03-3. Scherzo (Allegro molto) [String Quartet No.14 in D minor, D.810 "Death and the Maiden"]
DR14 -5.25 dB -24.15 dB 9:03 04-4. Presto [String Quartet No.14 in D minor, D.810 "Death and the Maiden"]
DR13 -7.26 dB -25.92 dB 10:51 05-1. Allegro ma non troppo [String Quartet No.13 in A minor, D.804 "Rosamunde"]
DR13 -7.34 dB -26.82 dB 8:21 06-2. Andante [String Quartet No.13 in A minor, D.804 "Rosamunde"]
DR13 -8.39 dB -26.00 dB 7:00 07-3. Menuetto (Allegretto) [String Quartet No.13 in A minor, D.804 "Rosamunde"]
DR13 -7.29 dB -25.27 dB 7:17 08-4. Allegro moderato [String Quartet No.13 in A minor, D.804 "Rosamunde"]
––––––––––––––––––––––––––––––––––––––––

Number of tracks: 8
Official DR value: DR13

Samplerate: 2822400 Hz / PCM Samplerate: 176400 Hz
Channels: 2
Bits per sample: 1
Bitrate: 5645 kbps
Codec: DSD64


Thanks to the Original ripper!
Uncompressed SACD ISO size > 2,92 GB
>