Tags
Language
Tags

Quincy Jones and His Band - Big Band Bossa Nova (1962/2013) [Blu-Ray Audio Rip 24 bit/96 kHz]

Posted By: HDV
Quincy Jones and His Band - Big Band Bossa Nova (1962/2013) [Blu-Ray Audio Rip 24 bit/96 kHz]

Quincy Jones - Big Band Bossa Nova (1962/2013)
FLAC (tracks) 24 bit/96 kHz | Time - 32:47 minutes | 813 MB
Blu-Ray Audio Rip | Sourced Track - LPCM 24/96 Stereo | Front cover

"Big Band Bossa Nova" is a 1962 bossa nova album by American impresario, jazz composer, trumpeter, arranger and record producer Quincy Jones and his band. It features the popular number "Soul Bossa Nova." The title Big Band Bossa Nova was also used for three other 1962 albums, by Stan Getz, Oscar Castro-Neves and Enoch Light.

On this 1962 release, Quincy Jones leads a big band including stellar musicians Lalo Schifrin on piano, Phil Woods on alto sax, Paul Gonsalves on tenor sax, Clark Terry on trumpet and flugelhorn and flautist Roland Kirk. Kirk played the flute solo on the famous Soul Bossa Nova which was launched into mainstream consciousness as the now-iconic theme to the Austin Powers films spoofing the 1960s. Canadian actor/comedian Mike Myers, who brought Austin Powers to life, remembered Soul Bossa Nova as the theme from the TV game show Definition and thought it perfectly encapsulated the spirit of his movies. The rest of the music on this album is like a trip in a time machine to the swinging 60s.

Tracklist:

01 - Soul Bossa Nova
02 - Boogie Stop Shuffle
03 - Desafinado
04 - Manha De Carnaval (Morning Of The Carnival)
05 - Se E Tarde Me Pardoa (Forgive Me If I'm Late)
06 - On The Street Where You Live
07 - Samba De Una Nota So (One Note Samba)
08 - Lalo Bossa Nova
09 - Serenata
10 - Chega De Saudade (No More Blues)

Recorded in August-September 1962 at A&R Studios, NYC.

Musicians & more

Analyzed: Quincy Jones / Big Band Bossa Nova
––––––––––––––––––––––––––––––––––––––––

DR Peak RMS Duration Track
––––––––––––––––––––––––––––––––––––––––
DR10 -0.01 dB -11.31 dB 2:48 01-Soul Bossa Nova
DR8 -0.01 dB -9.62 dB 2:45 02-Boogie Bossa Nova
DR8 -0.01 dB -9.58 dB 2:57 03-Desafinado
DR9 -0.01 dB -9.74 dB 2:58 04-Black Orpheus (Manha De Carnaval)
DR10 -0.01 dB -10.80 dB 4:25 05-Se E Tarde Me Pardoa (Forgive Me If I'm Late)
DR9 -0.01 dB -9.73 dB 2:36 06-On The Street Where You Live
DR9 -0.01 dB -10.42 dB 2:05 07-Samba De Uma Nota So (One Note Samba)
DR10 -0.01 dB -10.56 dB 3:13 08-Lalo Bossa Nova
DR10 -0.01 dB -10.80 dB 3:22 09-Serenata
DR9 -0.01 dB -10.64 dB 5:39 10-Chega De Saudade (No More Blues)
––––––––––––––––––––––––––––––––––––––––

Number of tracks: 10
Official DR value: DR9

Samplerate: 96000 Hz
Channels: 2
Bits per sample: 24
Bitrate: 3311 kbps
Codec: FLAC
================================================================================


All files were fully tagged.