Tags
Language
Tags

Quincy Jones and His Band - Big Band Bossa Nova (1962/2014) [Official Digital Download 24 bit/192 kHz]

Posted By: HDV
Quincy Jones and His Band - Big Band Bossa Nova (1962/2014) [Official Digital Download 24 bit/192 kHz]

Quincy Jones - Big Band Bossa Nova (1962/2014)
FLAC (tracks) 24 bit/192 kHz | Time - 33:01 minutes | 1,53 GB
FLAC (tracks) 24 bit/96 kHz | Time - 33:01 minutes | 821 MB
Studio Master, Official Digital Download | Artwork: Front cover

"Big Band Bossa Nova: The Newest Latin American Rhythm" is a 1962 bossa nova album by American impresario, jazz composer, trumpeter, arranger and record producer Quincy Jones and his band. It features the popular number "Soul Bossa Nova". The title "Big Band Bossa Nova" was also used for three other 1962 albums, by Stan Getz, Oscar Castro-Neves and Enoch Light.

On this 1962 release, Quincy Jones leads a big band including stellar musicians Lalo Schifrin on piano, Phil Woods on alto sax, Paul Gonsalves on tenor sax, Clark Terry on trumpet and flugelhorn and flautist Roland Kirk. Kirk played the flute solo on the famous Soul Bossa Nova which was launched into mainstream consciousness as the now-iconic theme to the Austin Powers films spoofing the 1960s. Canadian actor/comedian Mike Myers, who brought Austin Powers to life, remembered Soul Bossa Nova as the theme from the TV game show Definition and thought it perfectly encapsulated the spirit of his movies. The rest of the music on this album is like a trip in a time machine to the swinging 60s.

Tracklist:

01 - Soul Bossa Nova
02 - Boogie Stop Shuffle
03 - Desafinado
04 - Manha De Carnaval (Morning Of The Carnival)
05 - Se E Tarde Me Pardoa (Forgive Me If I'm Late)
06 - On The Street Where You Live
07 - Samba De Una Nota So (One Note Samba)
08 - Lalo Bossa Nova
09 - Serenata
10 - Chega De Saudade (No More Blues)

More info @ Wikipedia

Analyzed: Quincy Jones / Big Band Bossa Nova
––––––––––––––––––––––––––––––––––––––––

DR Peak RMS Duration Track
––––––––––––––––––––––––––––––––––––––––
DR12 0.00 dB -13.96 dB 2:49 01-Soul Bossa Nova
DR11 0.00 dB -13.40 dB 2:45 02-Boogie Stop Shuffle
DR13 0.00 dB -14.89 dB 2:59 03-Desafinado
DR12 0.00 dB -14.20 dB 3:00 04-Manha De Carnaval (Morning Of The Carnival)
DR12 0.00 dB -14.08 dB 4:27 05-Se E Tarde Me Pardoa (Forgive Me If I'm Late)
DR12 0.00 dB -13.73 dB 2:38 06-On The Street Where You Live
DR12 0.00 dB -14.12 dB 2:06 07-Samba De Una Nota So (One Note Samba)
DR12 0.00 dB -14.16 dB 3:19 08-Lalo Bossa Nova
DR12 0.00 dB -14.61 dB 3:24 09-Serenata
DR12 0.00 dB -14.77 dB 5:33 10-Chega De Saudade (No More Blues)
––––––––––––––––––––––––––––––––––––––––

Number of tracks: 10
Official DR value: DR12

Samplerate: 192000 Hz
Channels: 2
Bits per sample: 24
Bitrate: 6370 kbps
Codec: FLAC
================================================================================


Thanks to the Original customer!