Subcategories

Radiohead - OK Computer: OKNOTOK 1997-2017 (2017) [Official Digital Download 24/96]

Posted By: HDV
Radiohead - OK Computer: OKNOTOK 1997-2017 (2017) [Official Digital Download 24/96]

Radiohead - OK Computer: OKNOTOK 1997-2017 (2017) [Deluxe Edition]
FLAC (tracks) 24-bit/96 kHz | Time - 92:37 minutes | 2,05 GB
Studio Master, Official Digital Download | Artwork: Front cover

"OK Computer: OKNOTOK 1997-2017" featuring remastered OK COMPUTER album plus B-Sides and 3 Never Before Released Tracks: “I Promise”, “Lift”, and “Man Of War”, rescued from defunct formats, prized from dark cupboards and brought to light after two decades in cold storage! All material on OKNOTOK is newly remastered from the original analogue tapes. OK COMPUTER was originally released on various dates ranging from May to July 1997. Produced by the band and Nigel Godrich, the album is widely cited as one of the greatest works of Radiohead’s–or any artist’s–catalogue and was the first Radiohead record to reach #1 in the UK and to be be nominated for the Album of the Year GRAMMY. In 2015, The National Recording Registry selected OK COMPUTER to be preserved in the Library of Congress as a recording that has proven "culturally, historically, or aesthetically significant".

Using the textured soundscapes of The Bends as a launching pad, Radiohead delivered another startlingly accomplished set of modern guitar rock with OK Computer. The anthemic guitar heroics present on Pablo Honey and even The Bends are nowhere to be heard here. Radiohead have stripped away many of the obvious elements of guitar rock, creating music that is subtle and textured yet still has the feeling of rock & roll. Even at its most adventurous – such as the complex, multi-segmented "Paranoid Android" – the band is tight, melodic, and muscular, and Thom Yorke's voice effortlessly shifts from a sweet falsetto to vicious snarls. It's a thoroughly astonishing demonstration of musical virtuosity and becomes even more impressive with repeated listens, which reveal subtleties like electronica rhythms, eerie keyboards, odd time signatures, and complex syncopations. Yet all of this would simply be showmanship if the songs weren't strong in themselves, and OK Computer is filled with moody masterpieces, from the shimmering "Subterranean Homesick Alien" and the sighing "Karma Police" to the gothic crawl of "Exit Music (For a Film)." OK Computer is the album that established Radiohead as one of the most inventive and rewarding guitar rock bands of the '90s.

OKNOTOK is the twentieth anniversary edition of OK Computer, a reissue endorsed by the band whereas the 2009 Collector's Edition was not. Both the 2009 and 2017 deluxe editions are double-CD sets—OKNOTOK also has accompanying Super Deluxe and vinyl editions—and the bonus material on both is largely identical, rounding up the B-sides that appeared on the various singles pulled from the album in 1997 and 1998. All the live tracks that appeared on the 2009 reissue—including a BBC session from May 28, 1997—are excised, along with two remixes of "Climbing Up the Walls" but what's in their place is more than welcome: three previously unreleased songs, including the semi-legendary "Lift." Radiohead played "Lift" often in its 1996 tour supporting Alanis Morissette and, among fans, it's been considered the bridge between The Bends and OK Computer, a song that could've been a radio hit if it showed up on the latter. "Lift" does indeed sway to a hopeful lilt which suggests pop even if the tune itself isn't particularly catchy. Nevertheless, it's a mini-marvel of sustained controlled mood, overshadowed somewhat by the dramatic unabashed prog of "Man of War" but not "I Promise," a nice ballad that's the least of the trio of new tracks. That said, all three are strong songs—sometimes stronger than the released B-sides—and they're reason enough for serious Radiohead heads to pick up this anniversary edition.

Tracklist:

01 - Airbag
02 - Paranoid Android
03 - Subterranean Homesick Alien
04 - Exit Music (For a Film)
05 - Let Down
06 - Karma Police
07 - Fitter Happier
08 - Electioneering
09 - Climbing Up the Walls
10 - No Surprises
11 - Lucky
12 - The Tourist
13 - I Promise
14 - Man of War
15 - Lift
16 - Lull
17 - Meeting in the Aisle
18 - Melatonin
19 - A Reminder
20 - Polyethylene (Parts 1 & 2)
21 - Pearly*
22 - Palo Alto
23 - How I Made My Millions

Analyzed: Radiohead / OK Computer: OKNOTOK 1997-2017
––––––––––––––––––––––––––––––––––––––––

DR Peak RMS Duration Track
––––––––––––––––––––––––––––––––––––––––
DR6 -0.10 dB -8.04 dB 4:44 01-Airbag (Remastered)
DR6 -0.07 dB -9.56 dB 6:24 02-Paranoid Android (Remastered)
DR5 -0.10 dB -6.94 dB 4:29 03-Subterranean Homesick Alien (Remastered)
DR6 -0.05 dB -10.55 dB 4:25 04-Exit Music (For a Film) (Remastered)
DR7 -0.09 dB -8.32 dB 4:59 05-Let Down (Remastered)
DR6 -0.10 dB -7.81 dB 4:21 06-Karma Police (Remastered)
DR12 -0.10 dB -13.34 dB 1:57 07-Fitter Happier (Remastered)
DR6 -0.10 dB -7.34 dB 3:51 08-Electioneering (Remastered)
DR6 -0.10 dB -8.22 dB 4:45 09-Climbing Up the Walls (Remastered)
DR7 -0.08 dB -8.69 dB 3:48 10-No Surprises (Remastered)
DR6 -0.10 dB -8.29 dB 4:20 11-Lucky (Remastered)
DR6 -0.08 dB -8.43 dB 5:24 12-The Tourist (Remastered)
DR6 -0.10 dB -9.05 dB 3:59 01-I Promise
DR5 0.00 dB -7.97 dB 4:29 02-Man of War
DR6 -0.10 dB -8.01 dB 4:07 03-Lift
DR7 0.00 dB -9.40 dB 2:26 04-Lull (Remastered)
DR6 0.00 dB -7.99 dB 3:08 05-Meeting in the Aisle (Remastered)
DR7 -0.10 dB -9.25 dB 2:09 06-Melatonin (Remastered)
DR5 -0.10 dB -8.15 dB 3:52 07-A Reminder (Remastered)
DR8 -0.10 dB -9.67 dB 4:22 08-Polyethylene (Parts 1 & 2) (Remastered)
DR5 -0.08 dB -6.88 dB 3:39 09-Pearly* (Remastered)
DR7 -0.10 dB -10.50 dB 3:52 10-Palo Alto (Remastered)
DR10 -0.64 dB -12.27 dB 3:07 11-How I Made My Millions (Remastered)
––––––––––––––––––––––––––––––––––––––––

Number of tracks: 23
Official DR value: DR7

Samplerate: 96000 Hz
Channels: 2
Bits per sample: 24
Bitrate: 2484 kbps
Codec: FLAC
================================================================================


Thanks to the Original customer!