Please register here if you want to download anything!

If domain in your address bar is different from the list below
PLEASE LEAVE THAT SITE IMMEDIATELY
❗IT'S A DANGEROUS FAKE❗



Spicy Magazines for Men! ;-)

The Ray Brown Trio - Live At The Loa: Summer Wind (1990/2003) [Official Digital Download 24/88]

Posted By: HDV
The Ray Brown Trio - Live At The Loa: Summer Wind (1990/2003) [Official Digital Download 24/88]

The Ray Brown Trio - Live At The Loa: Summer Wind (1990/2003)
FLAC (tracks) 24 bit/88,2 kHz | Time - 55:46 minutes | 1,16 GB
Studio Master, Official Digital Download | Artwork: Digital booklet

The Ray Brown Trio consisted of Brown’s colleagues Gene Harris, who plays a lot of piano that sounds rich, full-bodied, and not overly refined. The trio also features Jeff Hamilton, one of the stand-out drummers of the latter-day Woody Herman Herds. The Ray Brown Trio recorded this album live at The Loa in Santa Monica, CA, in July 1988. The club no longer exists, but at the time it was co-owned by Ray Brown.

The Ray Brown Trio - Live At The Loa: Summer Wind (1990/2003) [Official Digital Download 24/88]

Ray Brown has many great contributions to jazz as a leader and a sideman, but one additional way in which he helped jazz was his encouraging Gene Harris to give up his early retirement and go back out on the road. The pianist was a part of Brown's groups for several years before he formed a working quartet and became a leader for good once again. This 1988 concert at a since-defunct Santa Monica night club (co-owned by Brown) finds the two, along with drummer Jeff Hamilton, at the top of their game. A phone ringing in the background distracts momentarily from Brown's opening solo in his composition "The Real Blues," during which Harris repeats a bluesy tremolo, which may be an inside joke about the early distraction. Harris take a blues-drenched approach to "Mona Lisa" before giving way to the leader's solo, while his lyrical approach to "Can't Help Lovin' Dat Man" is shimmering. Hamilton's soft brushes are prominent in "Little Darlin'," but his explosive playing provides a powerful pulse to the very unusual strutting take of "It Don't Mean a Thing". This extremely satisfying Album is warmly recommended.

Tracklist:

01 - Summer Wind
02 - The Real Blues
03 - Li'l Darlin'
04 - It Don't Mean A Thing (If It Ain't Got That Swing)
05 - Mona Lisa
06 - Buhaina Buhaina
07 - Can't Help Lovin' Dat Man
08 - Bluesology

Recorded live at the Loa, Santa Monica, CA., in July 1988.

Musicians:
Ray Brown - bass
Gene Harris - piano
Scott Hamilton - drums

Analyzed: Ray Brown Trio / Live At The Loa - Summer Wind
––––––––––––––––––––––––––––––––––––––––

DR Peak RMS Duration Track
––––––––––––––––––––––––––––––––––––––––
DR12 -2.67 dB -17.59 dB 5:40 01-Summer Wind
DR11 -2.68 dB -17.89 dB 7:42 02-The Real Blues
DR13 -3.15 dB -21.36 dB 8:56 03-Li'l Darlin'
DR12 -2.74 dB -17.79 dB 7:12 04-It Don't Mean A Thing (If It Ain't Got That Swing)
DR13 -3.06 dB -21.52 dB 5:50 05-Mona Lisa
DR12 -2.69 dB -17.34 dB 5:47 06-Buhaina Buhaina
DR12 -2.73 dB -19.11 dB 9:40 07-Can't Help Lovin' Dat Man
DR11 -2.73 dB -17.69 dB 4:59 08-Bluesology
––––––––––––––––––––––––––––––––––––––––

Number of tracks: 8
Official DR value: DR12

Samplerate: 88200 Hz
Channels: 2
Bits per sample: 24
Bitrate: 2856 kbps
Codec: FLAC
================================================================================


Thanks to the Original customer!