Ray Charles & Betty Carter - Ray Charles And Betty Carter (1961) [Analogue Productions Remaster 2012] PS3 ISO + Hi-Res FLAC

Posted By: HDAtall
Ray Charles & Betty Carter - Ray Charles And Betty Carter (1961) [Analogue Productions Remaster 2012] PS3 ISO + Hi-Res FLAC

Ray Charles & Betty Carter - Ray Charles And Betty Carter (1961) [APO 2012]
PS3 Rip | SACD ISO | DSD64 Stereo & DST64 3.0 > 1-bit/2.8224 MHz | 42:34 min | Scans included | 2,33 GB
or FLAC 2.0 Stereo (converted with foobar2000 to tracks) 24bit/88,2 kHz | Full Scans included | 854 MB

This pairing of two totally idiosyncratic vocalists acquired legendary status over the decades in which it had been out of print. But the proof is in the listening, and frankly it doesn't represent either artist's best work. There is certainly a powerful, often sexy rapport between the two – Charles in his sweet balladeering mode, Carter with her uniquely keening, drifting high register – and they definitely create sparks in the justly famous rendition of "Baby, It's Cold Outside." The main problem is in Marty Paich's string/choir arrangements, which too often cross the line into treacle, whereas his charts for big band are far more listenable. Moreover, Charles' sweetness can get a bit cloying, too, although some of the old grit emerges on "Takes Two to Tango".

Tracklist:

01. Ev'ry Time We Say Goodbye
02. You and I
03. Intro: Goodbye/We'll Be Together Again
04. People Will Say We're In Love
05. Cocktails For Two
06. Side By Side
07. Baby, It's Cold Outside
08. Together
09. For All We Know
10. Takes Two To Tango
11. Alone Together
12. Just You, Just Me
13. Hard Hearted Hannah [Unlisted Track]

foobar2000 1.3.2 / Dynamic Range Meter 1.1.1

––––––––––––––––––––––––––––––––––––––––
Analyzed: Ray Charles / Ray Charles and Betty Carter
––––––––––––––––––––––––––––––––––––––––

DR Peak RMS Duration Track
––––––––––––––––––––––––––––––––––––––––
DR8 -10.90 dB -31.71 dB 4:38 01-Ev'ry Time We Say Goodbye
DR8 -8.06 dB -29.06 dB 3:25 02-You and I
DR7 -10.50 dB -30.32 dB 3:19 03-Intro: Goodbye/We'll Be Together Again
DR8 -6.21 dB -29.22 dB 2:50 04-People Will Say We're In Love
DR7 -13.92 dB -32.98 dB 3:13 05-Cocktails For Two
DR8 -7.95 dB -28.30 dB 2:22 06-Side By Side
DR6 -7.87 dB -31.20 dB 4:08 07-Baby, It's Cold Outside
DR7 -6.13 dB -27.74 dB 1:33 08-Together
DR7 -8.71 dB -30.68 dB 3:42 09-For All We Know
DR8 -6.20 dB -27.38 dB 3:22 10-Takes Two To Tango
DR7 -8.39 dB -29.76 dB 4:44 11-Alone Together
DR8 -9.70 dB -29.49 dB 1:56 12-Just You, Just Me
DR9 -6.44 dB -29.69 dB 3:20 13-Hard Hearted Hannah
––––––––––––––––––––––––––––––––––––––––

Number of tracks: 13
Official DR value: DR8

Samplerate: 2822400 Hz / PCM Samplerate: 88200 Hz
Channels: 5
Bits per sample: 24
Bitrate: 14112 kbps
Codec: DST64
================================================================================

––––––––––––––––––––––––––––––––––––––––
Analyzed: Ray Charles / Ray Charles and Betty Carter
––––––––––––––––––––––––––––––––––––––––

DR Peak RMS Duration Track
––––––––––––––––––––––––––––––––––––––––
DR13 -9.01 dB -25.56 dB 4:38 01-Ev'ry Time We Say Goodbye
DR13 -5.03 dB -22.93 dB 3:25 02-You and I
DR13 -7.12 dB -23.23 dB 3:19 03-Intro: Goodbye/We'll Be Together Again
DR14 -4.96 dB -23.23 dB 2:50 04-People Will Say We're In Love
DR12 -9.95 dB -26.81 dB 3:13 05-Cocktails For Two
DR14 -5.50 dB -22.50 dB 2:22 06-Side By Side
DR15 -5.77 dB -25.50 dB 4:08 07-Baby, It's Cold Outside
DR13 -6.73 dB -22.71 dB 1:33 08-Together
DR12 -8.04 dB -24.85 dB 3:42 09-For All We Know
DR13 -6.52 dB -22.66 dB 3:22 10-Takes Two To Tango
DR12 -5.86 dB -23.85 dB 4:44 11-Alone Together
DR13 -6.19 dB -23.44 dB 1:56 12-Just You, Just Me
DR14 -4.62 dB -23.57 dB 3:20 13-Hard Hearted Hannah
––––––––––––––––––––––––––––––––––––––––

Number of tracks: 13
Official DR value: DR13

Samplerate: 2822400 Hz / PCM Samplerate: 88200 Hz
Channels: 2
Bits per sample: 24
Bitrate: 5645 kbps
Codec: DSD64


Thanks to PS³SACD!
Uncompressed SACD ISO size > 2,71 GB
>
SACD ISO 1
SACD ISO 2
SACD ISO 3
FLAC
>