Tags
Language
Tags
February 2024
Su Mo Tu We Th Fr Sa
28 29 30 31 1 2 3
4 5 6 7 8 9 10
11 12 13 14 15 16 17
18 19 20 21 22 23 24
25 26 27 28 29 1 2
Attention❗ To save your time, in order to download anything on this site, you must be registered 👉 HERE. If you do not have a registration yet, it is better to do it right away. ✌

( • )( • ) ( ͡⚆ ͜ʖ ͡⚆ ) (‿ˠ‿)
SpicyMags.xyz

Ray Davies & The Button Down Brass - Themes From The Exorcist & Flashpoint (1974-75) [Reissue 2017] MCH PS3 ISO + Hi-FLAC

Posted By: HDAtall
Ray Davies & The Button Down Brass - Themes From The Exorcist & Flashpoint (1974-75) [Reissue 2017] MCH PS3 ISO + Hi-FLAC

Ray Davies - Themes from The Exorcist, The French Connection, The Sting and other great films & Flashpoint (2017)
PS3 Rip | SACD ISO | DST64 2.0 & 5.1 > 1-bit/2.8224 MHz | 63:50 minutess | Scans included | 2,99 GB
or DSD64 Stereo (from SACD-ISO to Tracks.dsf) > 1-bit/2.8224 MHz | Full Scans included | 1,54 GB
or FLAC 2.0 (carefully converted & encoded to tracks) 24bit/96 kHz | Scans included | 1,39 GB
Features Stereo and Quadrophonic Surround Sound | Label: Vocalion # CDSML 8526

Two great albums from Ray "funky trumpet" Davies – not the lead singer of The Kinks, but a heck of a groovy British bandleader from the 70s! First up is an album of Themes From The Exorcist and other films – all familiar movie themes from the early 70s, penned by artists like Michel Legrand and Lalo Schifrin – but served up here by Ray's Button Down Brass in a very cool style – compressed funk, ala the best crime/cop modes of the time – but with lots of individual touches that make the songs very different than the original versions! Titles include "Point Blank", "Enter The Dragon", "Klute", "French Connection", "Tubular Bells", "Cops & Robbers", and "Beyond Tomorrow". Flashpoint continues with some great film themes again served up in the magic Ray Davies mode – a funky big band approach that makes the record every bit as compelling as the American Cop Shows album from Henry Mancini – but maybe groovier, too. Titles include "Kojak", "Big Boss", "Man With The Golden Gun", "Mr Majestyk", "Magnum Force", "Fist Of Fury", and "Airport 1975".

Tracklist:

01. The French Connection
02. Love Theme from The Getaway
03. Klute
04. The Magician
05. The Entertainer
06. Bullitt
07. Cops and Robbers
08. Enter the Dragon
09. Night Must Fall
10. Point Blank
11. Beyond Tomorrow
12. Tubular Bells
13. The Man with the Golden Gun
14. The Big Boss
15. Earthquake
16. Mr Majestyk
17. Love Said Goodbye
18. Kojak
19. Magnum Force
20. Gold
21. Live and Let Die
22. Airport 1975
23. We May Never Love Like this Again
24. Fist of Fury

Tracks "01-12" is "Themes From The Exorcist" (LP '1974)
Tracks "13-24" is "Flashpoint" (LP '1975).
Remastered from the Original Master tapes by Michael J. Dutton.

foobar2000 1.6.14 / Dynamic Range Meter 1.1.1

––––––––––––––––––––––––––––––––––––––––
Analyzed: Ray Davies Button Down / Themes & Flashpoint
––––––––––––––––––––––––––––––––––––––––

DR Peak RMS Duration Track
––––––––––––––––––––––––––––––––––––––––
DR8 -5.73 dB -22.39 dB 2:56 01-The French Connection
DR9 -6.99 dB -26.33 dB 2:40 02-Love Theme from The Getaway
DR9 -7.53 dB -26.03 dB 3:22 03-Klute
DR9 -5.54 dB -24.55 dB 1:56 04-The Magician
DR10 -5.57 dB -25.06 dB 2:52 05-The Entertainer
DR8 -6.87 dB -24.09 dB 2:23 06-Bullitt
DR8 -6.91 dB -25.49 dB 2:14 07-Cops and Robbers
DR9 -6.14 dB -24.49 dB 2:06 08-Enter the Dragon
DR9 -7.18 dB -25.35 dB 3:16 09-Night Must Fall
DR8 -6.49 dB -26.23 dB 3:08 10-Point Blank
DR8 -8.01 dB -25.40 dB 2:15 11-Beyond Tomorrow
DR9 -6.20 dB -24.91 dB 3:04 12-Tubular Bells
DR10 -5.86 dB -24.31 dB 2:43 13-The Man with the Golden Gun
DR10 -5.69 dB -24.53 dB 2:38 14-The Big Boss
DR9 -7.23 dB -25.02 dB 3:33 15-Earthquake
DR10 -5.68 dB -25.46 dB 2:07 16-Mr Majestyk
DR8 -7.03 dB -26.05 dB 3:01 17-Love Said Goodbye
DR9 -6.04 dB -25.28 dB 1:51 18-Kojak
DR9 -5.54 dB -24.52 dB 1:47 19-Magnum Force
DR10 -6.55 dB -25.68 dB 2:15 20-Gold
DR9 -7.55 dB -26.57 dB 2:50 21-Live and Let Die
DR8 -7.69 dB -24.94 dB 3:15 22-Airport 1975
DR10 -5.94 dB -26.00 dB 3:19 23-We May Never Love Like this Again
DR9 -6.54 dB -24.63 dB 2:20 24-Fist of Fury
––––––––––––––––––––––––––––––––––––––––

Number of tracks: 24
Official DR value: DR9

Samplerate: 2822400 Hz / PCM Samplerate: 176400 Hz
Channels: 6
Bits per sample: 1
Bitrate: 16934 kbps
Codec: DST64
================================================================================

––––––––––––––––––––––––––––––––––––––––
Analyzed: Ray Davies Button Down / Themes & Flashpoint
––––––––––––––––––––––––––––––––––––––––

DR Peak RMS Duration Track
––––––––––––––––––––––––––––––––––––––––
DR12 -6.97 dB -21.82 dB 2:56 01-The French Connection
DR13 -7.12 dB -23.04 dB 2:40 02-Love Theme from The Getaway
DR11 -7.59 dB -22.13 dB 3:22 03-Klute
DR12 -6.95 dB -21.05 dB 1:56 04-The Magician
DR13 -7.00 dB -23.11 dB 2:52 05-The Entertainer
DR12 -6.64 dB -20.95 dB 2:23 06-Bullitt
DR12 -8.16 dB -22.48 dB 2:14 07-Cops and Robbers
DR12 -7.19 dB -21.56 dB 2:06 08-Enter the Dragon
DR12 -8.35 dB -22.46 dB 3:16 09-Night Must Fall
DR11 -7.05 dB -22.23 dB 3:08 10-Point Blank
DR12 -7.62 dB -22.41 dB 2:15 11-Beyond Tomorrow
DR12 -6.43 dB -22.89 dB 3:04 12-Tubular Bells
DR14 -6.22 dB -22.56 dB 2:43 13-The Man with the Golden Gun
DR13 -7.59 dB -23.20 dB 2:38 14-The Big Boss
DR13 -8.34 dB -23.90 dB 3:33 15-Earthquake
DR13 -7.42 dB -23.75 dB 2:07 16-Mr Majestyk
DR13 -8.53 dB -24.34 dB 3:01 17-Love Said Goodbye
DR13 -7.26 dB -22.99 dB 1:51 18-Kojak
DR13 -6.88 dB -22.65 dB 1:47 19-Magnum Force
DR14 -8.54 dB -24.63 dB 2:15 20-Gold
DR13 -7.93 dB -23.83 dB 2:50 21-Live and Let Die
DR13 -7.37 dB -21.91 dB 3:15 22-Airport 1975
DR15 -7.26 dB -24.72 dB 3:19 23-We May Never Love Like this Again
DR13 -7.36 dB -22.25 dB 2:20 24-Fist of Fury
––––––––––––––––––––––––––––––––––––––––

Number of tracks: 24
Official DR value: DR13

Samplerate: 2822400 Hz / PCM Samplerate: 176400 Hz
Channels: 2
Bits per sample: 1
Bitrate: 5645 kbps
Codec: DST64


Thanks to KingCrim!
Uncompressed SACD ISO size > 2,85 GB
>