Eiji Oue, Minnesota Orchestra - Ottorino Respighi... (2001) [Official Digital Download 24/88]

Posted By: HDV
Eiji Oue, Minnesota Orchestra - Ottorino Respighi... (2001) [Official Digital Download 24/88]

Eiji Oue, Minnesota Orchestra - Respighi: Belkis, Queen Of Sheba; Dance Of The Gnomes; The Pines Of Rome (2001)
FLAC (tracks) 24 bit/88,2 kHz | Time - 62:31 minutes | 1,02 GB
Studio Master, Official Digital Download | Artwork: Digital Booklet

"Dazzling orchestral colors," is one one way to describe the music of Ottorino Respighi. "Belkis, Queen of Sheba" was conceived as an evening-long ballet with singing whose lavishness has kept it from view since its La Scala premiere. This is only the second recording of a suite prepared by the composer " for the first time with the tenor solo (sung by Chad Shelton), and with the movements in the correct order. The music's oriental perfumes and barbaric splendor guarantee the enthusiasm of anyone who hears it. "Dance of the Gnomes" is a little-known but characteristically dramatic and colorful (some might say "lurid") tone poem. "Prof." Johnson's stunning HDCD sonics make Respighi's greatest hit "The Pines of Rome" (with extra brasses and organ!) a dazzling conclusion to this unusual, inventive program.

Tracklist:

01 - Belkis, Queen Of Sheba
02 - Dance of the Gnomes
03 - The Pines of Rome

Analyzed: Eiji Oue / Minnesota Orchestra / Respighi
––––––––––––––––––––––––––––––––––––––––

DR Peak RMS Duration Track
––––––––––––––––––––––––––––––––––––––––
DR16 -0.38 dB -22.97 dB 24:05 01-Belkis, Queen of Sheba
DR17 -1.66 dB -24.65 dB 15:47 02-Dance of the Gnomes
DR16 -0.20 dB -24.64 dB 22:39 03-The Pines of Rome
––––––––––––––––––––––––––––––––––––––––

Number of tracks: 3
Official DR value: DR16

Samplerate: 88200 Hz
Channels: 2
Bits per sample: 24
Bitrate: 2182 kbps
Codec: FLAC
================================================================================


Thanks to the Original customer!