Richard Thompson - Rumor And Sigh (1991/2016) [Official Digital Download 24/192]

Posted By: HDV
Richard Thompson - Rumor And Sigh (1991/2016) [Official Digital Download 24/192]

Richard Thompson - Rumor And Sigh (1991/2016)
FLAC (tracks) 24-bit/192 kHz | Time - 61:25 minutes | 2,61 GB
Studio Master, Official Digital Download | Artwork: Front cover

This Grammy nominated album from Richard Thompson is one of his most beloved and contains his classic 1952 Vincent Black Lightning, often-covered and included on TIME's list of the 100 greatest songs of all time.

While Richard Thompson's devotees will tell you the man is a triple-threat genius – passionate vocalist, compelling songwriter, and sterling guitarist – even his most loyal supporters will concede that the dour nature of his songs and the no-frills production of many of his albums make the bulk of his catalog tough sledding for the uninitiated. Given this, 1991's Rumor and Sigh is arguably the best album for those wanting to sample Thompson's work for the first time. It captures Thompson at the top of his form on all fronts, but also gives his songs just enough polish to make them approachable for the unconverted, and though it's several shades darker than the average adult-contemporary album, it honors Thompson's obsession with romantic despair and the less pleasant quirks of fate without sounding depressing in the process. Producer Mitchell Froom tricked up Thompson's sound a bit, but his approach added to the material rather than interfering with it; the topsy-turvy keyboards and sharp, snapping drum sound on "Gray Walls" and "You Dream Too Much" actually add to their narrative drama, and Froom coaxed some of Thompson's most soulful vocals on "Why Must I Plead" and "I Misunderstood." Thompson actually gets funny on "Don't Sit On My Jimmy Shands" and the darkly hilarious "Psycho Street," and Thompson fans who like his work straight with no chaser will be knocked flat by "1952 Vincent Black Lightning," perhaps the best traditional-style number in his songbook, and the harrowing "God Loves A Drunk," an unnerving tale of several kinds of addiction. While Rumor and Sigh is quite slick by Thompson's standards, its clean lines and bright mix serve both the songs and the bandleader quite well, and make Thompson's tunes sound like the radio hits they've always deserved to be.

Tracklist:

01 - Read About Love
02 - I Feel So Good
03 - I Misunderstood
04 - Grey Walls
05 - You Dream Too Much
06 - Why Must I Plead
07 - 1952 Vincent Black Lightning
08 - Backlash Love Affair
09 - Mystery Wind
10 - Don't Sit On My Jimmy Shands
11 - Keep Your Distance
12 - Mother Knows Best
13 - God Loves A Drunk
14 - Psycho Street

Analyzed: Richard Thompson / Rumor And Sigh
––––––––––––––––––––––––––––––––––––––––

DR Peak RMS Duration Track
––––––––––––––––––––––––––––––––––––––––
DR7 -0.60 dB -9.67 dB 3:37 01-Read About Love
DR7 -0.56 dB -9.04 dB 3:22 02-I Feel So Good
DR9 -0.68 dB -11.54 dB 4:08 03-I Misunderstood
DR8 -0.63 dB -10.35 dB 4:25 04-Grey Walls
DR9 -0.42 dB -11.17 dB 4:05 05-You Dream Too Much
DR8 -0.61 dB -12.15 dB 5:00 06-Why Must I Plead
DR8 -1.44 dB -11.78 dB 4:42 07-1952 Vincent Black Lightning
DR8 0.00 dB -9.44 dB 4:48 08-Backlash Love Affair
DR8 -0.67 dB -11.98 dB 4:36 09-Mystery Wind
DR8 -0.65 dB -10.59 dB 4:26 10-Don't Sit On My Jimmy Shands
DR8 -0.97 dB -9.97 dB 4:12 11-Keep Your Distance
DR8 -0.51 dB -8.89 dB 4:59 12-Mother Knows Best
DR10 -1.35 dB -15.30 dB 4:39 13-God Loves A Drunk
DR8 -1.08 dB -12.32 dB 4:26 14-Psycho Street
––––––––––––––––––––––––––––––––––––––––

Number of tracks: 14
Official DR value: DR8

Samplerate: 192000 Hz
Channels: 2
Bits per sample: 24
Bitrate: 5819 kbps
Codec: FLAC
================================================================================


Thanks to the Original customer!