Richie Beirach Trio - No Borders (2002) [Japan 2003] SACD ISO + DSD64 + Hi-Res FLAC

Posted By: HDAtall
Richie Beirach Trio - No Borders (2002) [Japan 2003] SACD ISO + DSD64 + Hi-Res FLAC

Richie Beirach Trio - No Borders (2002) [Japan 2003]
SACD Rip | SACD ISO | DSD64 2.0 > 1-bit/2.8224 MHz | 69:28 minutes | Front/Rear Covers | 1,76 GB
or DSD64 Stereo (from SACD-ISO to Tracks.dsf) > 1-bit/2.8224 MHz | Front/Rear Covers | 1,55 GB
or FLAC 2.0 (carefully converted & encoded to tracks) 24bit/48 kHz | Front/Rear Covers | 685 MB

No Borders focuses on classical pieces as a basis for improvisation, and, on the other hand, also contains a completely composed original composition by Beirach: "Steel Prayers", a piece for the victims of 9/11. To take classical pieces and open them for improvisation, without depriving them of their character, is also the basic principle in the cooperation with violinist Gregor Hübner.

Pianist Richie Beirach's jazzification of classical melodies written by Schumann, Beethoven, Satie, Faure and Debussy. With the great support by George Mraz and Billy Hart, Beirach's performance here is by turns swinging, romantic and melancholic. Guest violinist Gregor Huebner appears on two tracks. The final tune is an aching original by Beirach called "Steel Prayers - Ballad for 9/11 WTC" commemorating the 9/11 tragedy which had taken place nine months before the recording.

Tracklist:

01. Schumann: Scenes From Childhood - Op.15 #1
02. Beethoven: Pathetique – Slow movement in C minor
03. Satie: Gnossienne #1 in F minor
04. Faure: Pavane in G minor
05. Debussy: Footprints In The Snow
06. Bach: Siciliano in G minor
07. Mompou: Impressions Intimas – #1 in A minor
08. Chopin: Prelude For Piano #4 in E minor
09. Beirach: Steel Prayers - Ballad for 9/11 WTC

Personnel
Richie Beirach - piano
George Mraz - bass
Billy Hart - drums
Gregor Hübner - violin on "5 & 9"

Produced Tetsuo Hara and Todd Barkan. Engineered by Katherine Miller.
Recorded on May 7-8, 2002 at The Studio in New York. Mixed & Mastered by Tetsuo Hara.
Venus Hyper Magnum Sound Direct Mix. VENUS Japan # TKGV-15.

Ripped direct and unretouched using Pioneer BDP-80FD, Sonore ISO2DSD, and sacd_extract.

foobar2000 1.6.2 / Dynamic Range Meter 1.1.1

––––––––––––––––––––––––––––––––––––––––
Analyzed: RICHIE BEIRACH TRIO / NO BORDERS
––––––––––––––––––––––––––––––––––––––––

DR Peak RMS Duration Track
––––––––––––––––––––––––––––––––––––––––
DR8 -5.56 dB -16.74 dB 5:50 01-SCENES FROM CHILDHOOD-OP15 #1
DR8 -5.53 dB -16.99 dB 7:02 02-PATHETIQUE-C MINOR
DR7 -5.50 dB -16.01 dB 5:14 03-GNOSSIENNE #1
DR8 -5.54 dB -16.46 dB 5:41 04-PAVANE
DR9 -5.57 dB -18.90 dB 7:43 05-FOOTPRINTS IN THE SNOW
DR10 -5.62 dB -18.36 dB 4:16 06-SICILIANO
DR8 -5.56 dB -17.67 dB 8:10 07-IMPRESSIONS INTIMAS #1
DR8 -5.50 dB -17.06 dB 7:53 08-PRELUDE FOR PIANO #4
DR9 -5.63 dB -18.65 dB 4:29 09-STEEL PRAYERS-BALLAD FOR 9/11 WTC
––––––––––––––––––––––––––––––––––––––––

Number of tracks: 9
Official DR value: DR8

Samplerate: 2822400 Hz / PCM Samplerate: 176400 Hz
Channels: 2
Bits per sample: 1
Bitrate: 5645 kbps
Codec: DSD64


Thanks to jazzyman!
Uncompressed SACD ISO size > 2,25 GB
>