Tags
Language
Tags
June 2024
Su Mo Tu We Th Fr Sa
26 27 28 29 30 31 1
2 3 4 5 6 7 8
9 10 11 12 13 14 15
16 17 18 19 20 21 22
23 24 25 26 27 28 29
30 1 2 3 4 5 6

Rihanna - Anti {Deluxe Edition} (2016) [Official Digital Download]

Posted By: HDV
Rihanna - Anti {Deluxe Edition} (2016) [Official Digital Download]

Rihanna - Anti (2016) [Deluxe Edition]
FLAC (tracks) 24-bit/44,1 kHz | Time - 51:14 minutes | 594 MB
Studio Master, Official Digital Download | Artwork: Front cover

Eighth studio album by the Barbadian singer. Debuting at #7 in the UK Albums Chart, the album includes the single 'Work' featuring Drake. This deluxe edition includes three bonus tracks.

Anti existed as an album cycle before it existed as an album – arguably long before Rihanna knew what form her eighth album would take, either. Work on Anti began in the autumn of 2014 and proceeded in semi-public, progress being measured in Instagram posts and tweets, along with intermittent singles, each released to white-hot anticipation but none metamorphosing into massive hits. When Anti finally appeared in January 2016 – three years after Unapologetic and months later than expected – it bore none of these 2015 singles, a move that suggests a tacit acknowledgment that neither the curiously muted Kanye West and Paul McCartney collaboration "FourFiveSeconds" nor the unrestrained roar of "Bitch Better Have My Money" functioned as appropriate anchors for the album. Then again, neither would've felt at home on the cloistered Anti, the first of Rihanna's records to feel constructed as a front-to-back album. Such a sustained sensibility distinguishes Anti from its predecessors, records where album cuts often felt like afterthoughts. That's not the case with Anti. This is an album whose heart lies within its deep cuts. Mood matters more than either hooks or rhythm: it's a subdued, simmering affair, its songs subtly shaded yet interlocked to create a vibe caught halfway between heartbreak and ennui. The latter has always been a specialty of Rihanna – her distance from her material was at once appealing and alienating – so hearing her lean into "Love on the Brain" and "Higher" is something of a revelation: her voice is hoarse and ravaged, yet she's also controlled and precise, knowing how to hone these imperfections so her performance echoes classic soul while feeling fresh. These songs come at the end of the album, after a series of songs that drift and wonder, the sound of an artist trying to figure out not only what her album is but who she is. By the end of Anti, Rihanna may not arrive at any definitive conclusions about her art but she's allowed herself to be unguarded and anti-commercial, resulting in her most compelling record to date.

Tracklist:

01 - Consideration (feat. SZA)
02 - James Joint
03 - Kiss It Better
04 - Work (feat. Drake)
05 - Desperado
06 - Woo
07 - Needed Me
08 - Yeah, I Said It
09 - Same Ol’ Mistakes
10 - Never Ending
11 - Love On The Brain
12 - Higher
13 - Close To You
14 - Goodnight Gotham [Bonus Track]
15 - Pose [Bonus Track]
16 - Sex With Me [Bonus Track]

Analyzed: Rihanna / Anti (Deluxe)
––––––––––––––––––––––––––––––––––––––––

DR Peak RMS Duration Track
––––––––––––––––––––––––––––––––––––––––
DR6 0.00 dB -6.52 dB 2:41 01-Consideration (feat. SZA)
DR7 -0.18 dB -9.34 dB 1:12 02-James Joint
DR5 0.00 dB -6.93 dB 4:13 03-Kiss It Better
DR6 0.00 dB -7.49 dB 3:39 04-Work (feat. Drake)
DR5 0.00 dB -6.44 dB 3:06 05-Desperado
DR4 0.00 dB -6.33 dB 3:56 06-Woo
DR5 0.00 dB -7.63 dB 3:12 07-Needed Me
DR6 0.00 dB -7.85 dB 2:13 08-Yeah, I Said It
DR5 0.00 dB -7.24 dB 6:37 09-Same Ol’ Mistakes
DR7 0.00 dB -9.57 dB 3:23 10-Never Ending
DR5 0.00 dB -6.38 dB 3:44 11-Love On The Brain
DR7 0.00 dB -8.98 dB 2:01 12-Higher
DR9 0.00 dB -11.75 dB 3:58 13-Close To You
DR6 0.00 dB -7.91 dB 1:28 14-Goodnight Gotham (Bonus Track)
DR5 0.00 dB -7.44 dB 2:24 15-Pose (Bonus Track)
DR6 0.00 dB -8.20 dB 3:26 16-Sex With Me (Bonus Track)
––––––––––––––––––––––––––––––––––––––––

Number of tracks: 16
Official DR value: DR6

Samplerate: 44100 Hz
Channels: 2
Bits per sample: 24
Bitrate: 1586 kbps
Codec: FLAC
================================================================================


Thanks to the Original customer!