Robert Cameron - For The First Time (1967/2017) [Official Digital Download 24-bit/192kHz]

Posted By: HDV
Robert Cameron - For The First Time (1967/2017) [Official Digital Download 24-bit/192kHz]

Robert Cameron - For The First Time (1967/2017)
FLAC (tracks) 24-bit/192 kHz | Time - 26:09 minutes | 1,01 GB
Studio Master, Official Digital Download | Artwork: Front cover

Robert Cameron makes an impressive disk debut here. He's a big-voiced balladeer who can make romance a private matter between singer and listener. There are lush string arrangements to support the mood and allows Cameron to score with special impact on the standards that are made so delightful to hear again.

Tracklist:

01 - It Might as Well Be Spring
02 - What'll I Do
03 - My Silent Love
04 - The More I See You
05 - Little White Lies
06 - I'll Never Smile Again
07 - Love Letters
08 - How Deep Is the Ocean
09 - I'll Get By (As Long as I Have You)
10 - Polka Dots and Moonbeams

Arranged by Frank Hunter And His Orchestra.

Analyzed: Robert Cameron / For the First Time
––––––––––––––––––––––––––––––––––––––––

DR Peak RMS Duration Track
––––––––––––––––––––––––––––––––––––––––
DR11 -1.73 dB -15.04 dB 2:49 01-It Might as Well Be Spring
DR10 -1.54 dB -15.54 dB 2:28 02-What'll I Do
DR9 -2.53 dB -14.58 dB 2:49 03-My Silent Love
DR11 -2.15 dB -15.96 dB 2:26 04-The More I See You
DR11 -1.26 dB -14.67 dB 2:07 05-Little White Lies
DR10 -2.37 dB -14.62 dB 2:21 06-I'll Never Smile Again
DR11 -0.48 dB -14.34 dB 2:37 07-Love Letters
DR10 -2.48 dB -15.42 dB 2:43 08-How Deep Is the Ocean
DR12 0.00 dB -15.13 dB 2:34 09-I'll Get By (As Long as I Have You)
DR11 -1.12 dB -15.01 dB 3:16 10-Polka Dots and Moonbeams
––––––––––––––––––––––––––––––––––––––––

Number of tracks: 10
Official DR value: DR11

Samplerate: 192000 Hz
Channels: 2
Bits per sample: 24
Bitrate: 5181 kbps
Codec: FLAC
================================================================================


Thanks to the Original customer!