Robert Glasper - Fuck Yo Feelings (2019) [Official Digital Download 24/96]

Posted By: delpotro
Robert Glasper - Fuck Yo Feelings (2019) [Official Digital Download 24/96]

Robert Glasper - Fuck Yo Feelings (2019)
FLAC (tracks) 24-bit/96 kHz | Front Cover | Time - 71:12 minutes | 1,43 GB
R'n'B, Hip-Hop, Soul, Electronic | Label: Loma Vista Recordings, Official Digital Download

Throwing open his studio doors, the pianist aims for a loose, mixtape-like vibe, but the stacked guest list yields a scattershot party that only ends up overstaying its own welcome. In the mini-documentary that accompanies Robert Glasper’s Fuck Yo Feelings, the Grammy-winning pianist and composer explains, “I want this whole thing to be mixtape vibe, so when we put it together it’s like a beat here, might be a song here, then we fuck around talking here.” To achieve this sort of free-form setup, Glasper welcomed a guest list of MCs, singers, and musicians—including Yasiin Bey, Herbie Hancock, YBN Cordae, Denzel Curry, and Audra Day—to pass through a studio in New York City and jam. The goal was to allow the artists to form organic bonds and strike up creative collaborations on the fly. But despite the accomplished cast, there’s little spark about the fruits of those sessions: Fuck Yo Feelings is a 71-minute melange of tepid sonic backdrops that lacks the vital momentum and progression inherent in any effective mixtape.

Tracklist:
1. Intro (04:47)
2. This Changes Everything (04:17)
3. Gone (03:44)
4. Let Me In (04:40)
5. In Case You Forgot (01:42)
6. Indulging In Such (04:04)
7. Fuck Yo Feelings (02:30)
8. Endangered Black Woman (03:45)
9. Expectations (04:55)
10. All I Do (06:53)
11. Aah Whoa (02:55)
12. I Want You (02:48)
13. Trade In Bars Yo (01:42)
14. DAF Fall Out (02:01)
15. Sunshine (01:53)
16. Liquid Swords (04:37)
17. DAF FTF (04:33)
18. Treal (07:27)
19. Cold (02:00)

foobar2000 1.4.1 / Dynamic Range Meter 1.1.1
log date: 2021-01-05 12:43:19

––––––––––––––––––––––––––––––––––––––––
Analyzed: Robert Glasper / Fuck Yo Feelings
––––––––––––––––––––––––––––––––––––––––

DR Peak RMS Duration Track
––––––––––––––––––––––––––––––––––––––––
DR5 -0.48 dB -6.93 dB 4:47 01-Intro
DR4 -0.28 dB -6.42 dB 4:17 02-This Changes Everything
DR4 -0.52 dB -6.41 dB 3:44 03-Gone
DR5 -0.52 dB -7.37 dB 4:40 04-Let Me In
DR5 -0.48 dB -6.08 dB 1:42 05-In Case You Forgot
DR5 -0.48 dB -6.60 dB 4:04 06-Indulging In Such
DR4 -0.28 dB -6.26 dB 2:30 07-Fuck Yo Feelings
DR4 -0.51 dB -6.17 dB 3:45 08-Endangered Black Woman
DR5 -0.52 dB -6.23 dB 4:55 09-Expectations
DR6 -0.60 dB -8.72 dB 6:53 10-All I Do
DR5 -0.52 dB -7.30 dB 2:55 11-Aah Whoa
DR5 -0.28 dB -6.33 dB 2:48 12-I Want You
DR5 -0.52 dB -7.05 dB 1:42 13-Trade In Bars Yo
DR4 -0.60 dB -7.22 dB 2:01 14-DAF Fall Out
DR5 -0.35 dB -6.79 dB 1:53 15-Sunshine
DR6 -0.52 dB -8.62 dB 4:37 16-Liquid Swords
DR6 -0.52 dB -7.77 dB 4:33 17-DAF FTF
DR5 -0.52 dB -6.83 dB 7:27 18-Treal
DR6 -0.70 dB -8.66 dB 2:00 19-Cold
––––––––––––––––––––––––––––––––––––––––

Number of tracks: 19
Official DR value: DR5

Samplerate: 96000 Hz
Channels: 2
Bits per sample: 24
Bitrate: 2818 kbps
Codec: FLAC
================================================================================


Thanks to the Original customer!