Please register here if you want to download anything!

If domain in your address bar is different from the list below
PLEASE LEAVE THAT SITE IMMEDIATELY
❗IT'S A DANGEROUS FAKE❗



Spicy Magazines for Men! ;-)

Rod Stewart - Blondes Have More Fun (1978/2013) [Official Digital Download 24bit/192kHz]

Posted By: HDV
Rod Stewart - Blondes Have More Fun (1978/2013) [Official Digital Download 24bit/192kHz]

Rod Stewart - Blondes Have More Fun (1978/2013)
FLAC (tracks) 24 bit/192 kHz | Time - 43:04 minutes | 1,62 GB
FLAC (tracks) 24 bit/96 kHz | Time - 43:04 minutes | 907 MB
Studio Master, Official Digital Download | Artwork: Front cover

"Blondes Have More Fun" has been called Rod Stewart's disco album, and was his ninth studio album. Full of guilty pleasures, including the chart-topping single "Do Ya Think I'm Sexy?", the album is still a stand-out as one of the best fusions of rock and disco. This album reached #1 on Billboard's Pop Albums in 1979.

In its simplest terms, Blondes Have More Fun is Rod Stewart's disco album, filled with pulsating rhythms and slick, synthesized textures. It's also his trashiest, most disposable album, filled with cheap come-ons and bad double entendres. Of course, that makes Blondes Have More Fun one of his most enjoyable records, even if all the pleasures are guilty. With its swirling strings and nagging chorus, "Da Ya Think I'm Sexy?" was the reason the record hit number one, and decades later, the song stands as one of the best rock-disco fusions. The rest of the record isn't as engaging, but he throws out a handful of winning tracks in the same mold, including "Ain't Love a Bitch," "Attractive Female Wanted," and the title track.

Tracklist:

01 - Da Ya Think I'm Sexy
02 - Dirty Weekend
03 - Ain't Love A Bitch
04 - The Best Days Of My Life
05 - Is That The Thanks I Get?
06 - Attractive Female Wanted
07 - Blondes (Have More Fun)
08 - Last Summer
09 - Standin' In The Shadows Of Love
10 - Scarred And Scared

Analyzed: Rod Stewart / Blondes Have More Fun
––––––––––––––––––––––––––––––––––––––––

DR Peak RMS Duration Track
––––––––––––––––––––––––––––––––––––––––
DR15 0.00 dB -16.69 dB 5:30 01-Da Ya Think I'm Sexy
DR12 -1.99 dB -15.76 dB 2:36 02-Dirty Weekend
DR15 -2.26 dB -19.18 dB 4:38 03-Ain't Love A Bitch
DR12 -5.71 dB -21.28 dB 4:21 04-The Best Days Of My Life
DR13 -3.05 dB -19.22 dB 4:32 05-Is That The Thanks I Get?
DR13 -2.03 dB -18.25 dB 4:17 06-Attractive Female Wanted
DR13 -1.21 dB -16.18 dB 3:46 07-Blondes (Have More Fun)
DR14 -2.18 dB -19.25 dB 4:05 08-Last Summer
DR13 -1.17 dB -16.84 dB 4:28 09-Standin' In The Shadows Of Love
DR14 -1.15 dB -20.35 dB 4:52 10-Scarred And Scared
––––––––––––––––––––––––––––––––––––––––

Number of tracks: 10
Official DR value: DR13

Samplerate: 192000 Hz
Channels: 2
Bits per sample: 24
Bitrate: 4917 kbps
Codec: FLAC
================================================================================


Thanks to the Original customer!