Tags
Language
Tags

Roger Waters - The Wall: Live in Berlin (1990) [2x SACD, Reissue 2003] PS3 ISO + Hi-Res FLAC

Posted By: HDAtall
Roger Waters - The Wall: Live in Berlin (1990) [2x SACD, Reissue 2003] PS3 ISO + Hi-Res FLAC

Roger Waters - The Wall: Live in Berlin (1990) [2x SACD, Reissue 2003]
PS3 Rip | SACD ISO | DST64 2.0 & 5.1 > 1-bit/2.8224 MHz | 110:20 mins | Scans | 8,82 GB
or FLAC(converted with foobar2000 to tracks) 24bit/88,2 kHz | Scans included | 2,16 GB

The Wall – Live in Berlin was a live concert performance by Roger Waters and numerous guest artists, of the Pink Floyd studio album The Wall, itself largely written by Waters during his time with the band. The show was held in Berlin on 21 July 1990, to commemorate the fall of the Berlin Wall eight months earlier.

Pink Floyd's 1979 double album The Wall was that strangest of beasts: a concept album, driven by a tortured rock-star protagonist, so obtusely personal it sometimes bordered on the inscrutable. But history was kind to the Roger Waters-spawned epic; when the communist bloc crumbled in 1989, taking the symbolic Berlin Wall with it, it inspired the ex-Floyd bassist and singer to frame his most ambitious work as another familiar tortured-rock-star conceit: the all-star benefit-concert TV broadcast. The shifting tides of history have undermined much of this remastered, double-disc soundtrack's momentous context, leaving behind a larger-than-life spectacle that, depending on one's viewpoint, could represent rock's most overarching populism–or the beginning of the end. Still, the star-heavy concept yields some unexpected surprises, from the Scorpions' bracing opening blast through haunting reinventions of "Mother" (Sinead O'Connor) and "Goodbye Blue Sky" (Joni Mitchell)–performances that blunt the oft-suspect misogyny of Waters's sprawling tale. Bryan Adams injects some vocal fire into "Empty Spaces" and "Young Lust," but by the time Waters, company, a massed German orchestra, choir, and the Military Orchestra of the Soviet Union reach the album's crescendos the event has gone so far over the top that it seems like nothing short of a neo-operatic Andrew Lloyd Webber wet dream.

Tracklist

DISC 1:
01. In The Flesh (Part 1)
02. The Thin Ice
03. Another Brick In The Wall (Part 1)
04. The Happiest Days Of Our Lives
05. Another Brick In The Wall (Part 2)
06. Mother
07. Goodbye Blue Sky
08. Empty Spaces
09. Young Lust
10. Oh My Gawd, What A Fabulous Room!
11. One Of My Turns
12. Don't Leave Me Now
13. Another Brick In The Wall (Part 3)
14. Goodbye Cruel World

DISC 2:
01. Hey You
02. Is There Anybody Out There
03. Nobody Home
04. Vera
05. Bring The Boys Back Home
06. Comfortably Numb
07. In The Flesh (Part 2)
08. Run Like Hell
09. Waiting For The Worms
10. Stop
11. The Trial
12. The Tide Is Turning

foobar2000 1.2.9 / Dynamic Range Meter 1.1.1

––––––––––––––––––––––––––––––––––––––––
Analyzed: Roger Waters / The Wall: Live In Berlin
––––––––––––––––––––––––––––––––––––––––

DR Peak RMS Duration Track
––––––––––––––––––––––––––––––––––––––––
DR13 -6.45 dB -24.44 dB 4:25 01-In The Flesh (Part 1)
DR13 -6.80 dB -27.26 dB 3:09 02-The Thin Ice
DR13 -6.84 dB -26.74 dB 3:37 03-Another Brick In The Wall (Part 1)
DR12 -6.78 dB -24.97 dB 1:21 04-The Happiest Days Of Our Lives
DR14 -5.93 dB -25.99 dB 6:26 05-Another Brick In The Wall (Part 2)
DR13 -6.70 dB -27.60 dB 6:37 06-Mother
DR11 -6.80 dB -25.41 dB 3:52 07-Goodbye Blue Sky
DR12 -6.43 dB -25.04 dB 3:55 08-Empty Spaces
DR15 -6.46 dB -25.70 dB 4:56 09-Young Lust
DR14 -9.73 dB -35.61 dB 1:38 10-Oh My Gawd, What A Fabulous Room!
DR14 -6.76 dB -26.71 dB 2:43 11-One Of My Turns
DR12 -6.59 dB -27.46 dB 5:13 12-Don't Leave Me Now
DR12 -6.61 dB -24.14 dB 3:25 13-Another Brick In The Wall (Part 3)
DR10 -11.47 dB -29.24 dB 1:31 14-Goodbye Cruel World
––––––––––––––––––––––––––––––––––––––––

Number of tracks: 14
Official DR value: DR13

Samplerate: 2822400 Hz / PCM Samplerate: 88200 Hz
Channels: 6
Bits per sample: 24
Bitrate: 16934 kbps
Codec: DST64
================================================================================

––––––––––––––––––––––––––––––––––––––––
Analyzed: Roger Waters / The Wall: Live In Berlin
––––––––––––––––––––––––––––––––––––––––

DR Peak RMS Duration Track
––––––––––––––––––––––––––––––––––––––––
DR14 -7.90 dB -25.31 dB 4:25 01-In The Flesh (Part 1)
DR15 -7.86 dB -26.81 dB 3:09 02-The Thin Ice
DR12 -10.76 dB -26.27 dB 3:37 03-Another Brick In The Wall (Part 1)
DR14 -8.38 dB -25.18 dB 1:21 04-The Happiest Days Of Our Lives
DR15 -7.57 dB -24.42 dB 6:26 05-Another Brick In The Wall (Part 2)
DR15 -6.63 dB -25.20 dB 6:37 06-Mother
DR12 -11.96 dB -26.48 dB 3:52 07-Goodbye Blue Sky
DR12 -6.88 dB -21.77 dB 3:55 08-Empty Spaces
DR14 -6.67 dB -22.04 dB 4:56 09-Young Lust
DR19 -9.86 dB -35.33 dB 1:38 10-Oh My Gawd, What A Fabulous Room!
DR14 -6.88 dB -23.69 dB 2:43 11-One Of My Turns
DR13 -8.66 dB -26.02 dB 5:13 12-Don't Leave Me Now
DR12 -6.84 dB -20.97 dB 3:25 13-Another Brick In The Wall (Part 3)
DR11 -14.49 dB -33.08 dB 1:31 14-Goodbye Cruel World
––––––––––––––––––––––––––––––––––––––––

Number of tracks: 14
Official DR value: DR14

Samplerate: 2822400 Hz / PCM Samplerate: 88200 Hz
Channels: 2
Bits per sample: 24
Bitrate: 5645 kbps
Codec: DST64


foobar2000 1.2.9 / Dynamic Range Meter 1.1.1

––––––––––––––––––––––––––––––––––––––––
Analyzed: Roger Waters / The Wall: Live In Berlin
––––––––––––––––––––––––––––––––––––––––

DR Peak RMS Duration Track
––––––––––––––––––––––––––––––––––––––––
DR13 -6.29 dB -26.97 dB 4:54 01-Hey You
DR11 -12.44 dB -32.97 dB 3:02 02-Is There Anybody Out There
DR13 -6.52 dB -27.32 dB 4:50 03-Nobody Home
DR11 -14.01 dB -32.13 dB 1:13 04-Vera
DR13 -6.87 dB -25.46 dB 2:51 05-Bring The Boys Back Home
DR14 -6.68 dB -25.02 dB 8:04 06-Comfortably Numb
DR13 -6.54 dB -24.13 dB 5:10 07-In The Flesh (Part 2)
DR13 -6.63 dB -25.29 dB 4:52 08-Run Like Hell
DR12 -6.52 dB -22.81 dB 4:13 09-Waiting For The Worms
DR12 -10.38 dB -32.16 dB 0:20 10-Stop
DR13 -8.14 dB -27.68 dB 7:23 11-The Trial
DR15 -6.44 dB -27.99 dB 10:39 12-The Tide Is Turning
––––––––––––––––––––––––––––––––––––––––

Number of tracks: 12
Official DR value: DR13

Samplerate: 2822400 Hz / PCM Samplerate: 88200 Hz
Channels: 6
Bits per sample: 24
Bitrate: 16934 kbps
Codec: DST64
================================================================================

––––––––––––––––––––––––––––––––––––––––
Analyzed: Roger Waters / The Wall: Live In Berlin
––––––––––––––––––––––––––––––––––––––––

DR Peak RMS Duration Track
––––––––––––––––––––––––––––––––––––––––
DR13 -6.88 dB -23.87 dB 4:54 01-Hey You
DR12 -10.77 dB -29.91 dB 3:02 02-Is There Anybody Out There
DR12 -7.94 dB -24.22 dB 4:50 03-Nobody Home
DR12 -13.83 dB -30.33 dB 1:13 04-Vera
DR10 -8.81 dB -21.60 dB 2:51 05-Bring The Boys Back Home
DR12 -8.11 dB -23.38 dB 8:04 06-Comfortably Numb
DR12 -7.40 dB -22.24 dB 5:10 07-In The Flesh (Part 2)
DR12 -9.47 dB -24.07 dB 4:52 08-Run Like Hell
DR12 -8.41 dB -23.44 dB 4:13 09-Waiting For The Worms
DR15 -14.93 dB -33.10 dB 0:20 10-Stop
DR12 -12.09 dB -27.13 dB 7:23 11-The Trial
DR13 -7.40 dB -25.59 dB 10:39 12-The Tide Is Turning
––––––––––––––––––––––––––––––––––––––––

Number of tracks: 12
Official DR value: DR12

Samplerate: 2822400 Hz / PCM Samplerate: 88200 Hz
Channels: 2
Bits per sample: 24
Bitrate: 5645 kbps
Codec: DST64


Thanks to SergeiVP!
Uncompressed SACD ISO size > 4,02 + 4,35 GB
>