Rolf Kuhn Unit - Stereo (2015) [Official Digital Download]

Posted By: HDV
Rolf Kuhn Unit - Stereo (2015) [Official Digital Download]

Rolf Kühn Unit - Stereo (2015)
FLAC (tracks) 24-bit/44,1 kHz | Time - 39:40 minutes | 454 MB
Studio Master, Official Digital Download | Artwork: Front cover

Rolf Kühn is a jazz clarinetist and saxophonist. He is the older brother of the pianist Joachim Kühn. In 2008 he founded the Band Rolf Kühn & TriO with Christian Lillinger, Ronny Graupe and Johannes Fink, later renamed to Rolf Kühn Unit Unit.


The inimitable German jazz clarinetist Rolf Kühns stylistically diverse, warm, full bodied, and immaculate playing has been featured in performances with other masters of jazz including Chick Corea, Dave Liebman, Michael and Randy Brecker, Lee Konitz, Albert Mangelsdorff, and Ornette Coleman. For this album Kühn teams up with guitarist Ronny Graupe, bass player Johannes Fink, and drummer Christian Lillinger young Berlin based musicians and their improvisations are marked by a constant flow of give and take that represents two generations in perfect rhythm and harmony.

Tracklist:

01 - District 7
02 - Black Jasmine
03 - Q 11
04 - Descendants
05 - Stereo
06 - Husky
07 - A Little Circus
08 - Shogun
09 - Open Windows
10 - Goodbye (For Buddy)

Musicians:
Rolf Kühn - clarinet
Ronny Graupe - guitar
Johannes Fink - bass
Christian Lillinger - drums

Analyzed: Rolf Kühn Unit / Stereo
––––––––––––––––––––––––––––––––––––––––

DR Peak RMS Duration Track
––––––––––––––––––––––––––––––––––––––––
DR8 -0.72 dB -11.79 dB 4:37 01-District 7
DR9 -0.72 dB -13.24 dB 5:22 02-Black Jasmine
DR10 -0.72 dB -13.39 dB 4:51 03-Q 11
DR12 -0.72 dB -16.32 dB 4:08 04-Descendants
DR9 -0.72 dB -12.63 dB 3:23 05-Stereo
DR10 -0.72 dB -13.63 dB 3:04 06-Husky
DR9 -0.72 dB -12.45 dB 3:11 07-A Little Circus
DR11 -0.72 dB -14.34 dB 6:23 08-Shogun
DR12 -0.72 dB -15.82 dB 2:31 09-Open Windows
DR10 -1.51 dB -15.15 dB 2:09 10-Goodbye (For Buddy)
––––––––––––––––––––––––––––––––––––––––

Number of tracks: 10
Official DR value: DR10

Samplerate: 44100 Hz
Channels: 2
Bits per sample: 24
Bitrate: 1268 kbps
Codec: FLAC
================================================================================


Thanks to the Original customer!