The Rolling Stones - December's Children (And Everybody's) (1965) [ABKCO Remaster 2002] PS3 ISO + Hi-Res FLAC

Posted By: HDAtall
The Rolling Stones - December's Children (And Everybody's) (1965) [ABKCO Remaster 2002] PS3 ISO + Hi-Res FLAC

The Rolling Stones - December's Children (And Everybody's) (1965) [ABKCO Remaster 2002]
PS3 Rip | SACD ISO | DSD64 2.0 > 1-bit/2.8224 MHz | 28:53 minutes | Scans included | 1011 MB
or FLAC (converted with foobar2000 to tracks) 24bit/96 kHz | Full Scans included | 786 MB

December's Children (And Everybody's) is the fifth American studio album by the English rock band the Rolling Stones, released in December 1965. Although it largely draws on songs issued earlier in the year in the United Kingdom, the album includes three previously unreleased tunes. It is the last of the group's early albums to feature numerous cover songs; writers Mick Jagger and Keith Richards wrote only half of the songs themselves.

There had been no sessions to record the album, many of the songs were drawn from the sessions for the UK edition of Out of Our Heads in September 1965 in Los Angeles. Many of the tracks had appeared earlier in the UK versions of Rolling Stones albums, but had been left off their American counterparts. Other tracks were unreleased tracks that had been recorded during other recording sessions, or had been singles-only releases. Joining core members Mick Jagger (vocals), Brian Jones (guitars), Keith Richards (guitars), Bill Wyman (bass), and Charlie Watts (drums) was former Stones member Ian Stewart on piano. As with most of their early albums, it was produced by band manager Andrew Loog Oldham.

The last Stones album in which cover material accounted for 50 percent of the content was thrown together from a variety of singles, British LP tracks, outtakes, and a cut from an early 1964 U.K. EP. Haphazard assembly aside, much of it's great, including the huge hit "Get Off of My Cloud" and the controversial, string-laden acoustic ballad "As Tears Go By" (a Top Ten item in America). Raiding the R&B closet for the last time, they also offered a breathless run-through of Larry Williams' "She Said Yeah," a sultry Chuck Berry cover ("Talkin' About You"), and exciting live versions of "Route 66" and Hank Snow's "I'm Moving On." More importantly, Jagger-Richards' songwriting partnership had now developed to the extent that several non-A-side tracks were reasonably strong in their own right, such as "I'm Free" and "The Singer Not the Song." And the version of "You Better Move On" (which had been featured on a British EP at the beginning of 1964) was one of their best and most tender soul covers.

Tracklist:

01. She Said Yeah
02. Talkin' About You
03. You Better Move On
04. Look What You've Done
05. The Singer Not The Song
06. Route 66
07. Get Off Of My Cloud
08. I'm Free
09. As Tears Go By
10. Gotta Get Away
11. Blue Turns To Grey
12. I'm Moving On

Mastered by Bob Ludwig at Gateway Mastering.
DSD Engineer: Gus Skinas.

foobar2000 1.4.6 / Dynamic Range Meter 1.1.1

––––––––––––––––––––––––––––––––––––––––
Analyzed: The Rolling Stones / December's Children
––––––––––––––––––––––––––––––––––––––––

DR Peak RMS Duration Track
––––––––––––––––––––––––––––––––––––––––
DR10 -6.72 dB -18.01 dB 1:34 01-She Said Yeah
DR11 -5.93 dB -18.61 dB 2:31 02-Talkin' About You
DR9 -7.75 dB -17.61 dB 2:39 03-You Better Move On
DR10 -4.90 dB -17.22 dB 2:15 04-Look What You've Done
DR11 -5.75 dB -18.06 dB 2:22 05-The Singer Not The Song
DR9 -4.85 dB -15.98 dB 2:39 06-Route 66
DR11 -6.40 dB -19.43 dB 2:55 07-Get Off Of My Cloud
DR11 -1.16 dB -19.75 dB 2:23 08-I'm Free
DR10 -8.05 dB -20.19 dB 2:45 09-As Tears Go By
DR11 -5.95 dB -18.17 dB 2:06 10-Gotta Get Away
DR10 -4.94 dB -16.54 dB 2:29 11-Blue Turns To Grey
DR9 -4.90 dB -15.76 dB 2:16 12-I'm Moving On
––––––––––––––––––––––––––––––––––––––––

Number of tracks: 12
Official DR value: DR10

Samplerate: 2822400 Hz / PCM Samplerate: 176400 Hz
Channels: 2
Bits per sample: 1
Bitrate: 5645 kbps
Codec: DSD64


Thanks to ManWhoCan!
Uncompressed SACD ISO size > 1,16 GB
>