The Rolling Stones - Their Satanic Majesties Request (1967/2017) [50th Anniversary Special Edition] (DSD64 + Hi-Res FLAC)

Posted By: HDV
The Rolling Stones - Their Satanic Majesties Request (1967/2017) [50th Anniversary Special Edition] (DSD64 + Hi-Res FLAC)

The Rolling Stones - Their Satanic Majesties Request (1967/2017) [50th Anniversary Special Edition]
DSD64 (.dsf) 1 bit/2,8 MHz | Time - 44:06 + 44:16 min | 1,77 GB
FLAC (tracks) 24-bit/88,2 kHz | Time - 44:06 + 44:16 | 1,45 GB
Stereo & MONO | Studio Master, Official Digital Download | Artwork: Front cover

Reissued for its 50th anniversary, Satanic Majesties remains a singular entry in the Stones’ catalog. It is the strange result of a bizarre set of personal, professional, and cultural circumstances. This set is one of the more straightforward to explain, since it comprises the stereo and mono versions of the album, newly remastered by by Bob Ludwig at Gateway Mastering.

Without a doubt, no Rolling Stones album – and, indeed, very few rock albums from any era – split critical opinion as much as the Rolling Stones' psychedelic outing. Many dismiss the record as sub-Sgt. Pepper posturing; others confess, if only in private, to a fascination with the album's inventive arrangements, which incorporated some African rhythms, Mellotrons, and full orchestration. What's clear is that never before or after did the Stones take so many chances in the studio. (Some critics and fans feel that the record has been unfairly undervalued, partly because purists expect the Stones to constantly champion a blues 'n' raunch worldview.) About half the material is very strong, particularly the glorious "She's a Rainbow," with its beautiful harmonies, piano, and strings; the riff-driven "Citadel"; the hazy, dreamlike "In Another Land," Bill Wyman's debut writing (and singing) credit on a Stones release; and the majestically dark and doomy cosmic rocker "2000 Light Years from Home," with some of the creepiest synthesizer effects (devised by Brian Jones) ever to grace a rock record. The downfall of the album was caused by some weak songwriting on the lesser tracks, particularly the interminable psychedelic jam "Sing This All Together (See What Happens)." It's a much better record than most people give it credit for being, though, with a strong current of creeping uneasiness that undercuts the gaudy psychedelic flourishes. In 1968, the Stones would go back to the basics, and never wander down these paths again, making this all the more of a fascinating anomaly in the group's discography.

Tracklist:

01 - Sing This All Together (Remastered 2017 - Stereo)
02 - Citadel (Remastered 2017 - Stereo)
03 - In Another Land (Remastered 2017 - Stereo)
04 - 2000 Man (Remastered 2017 - Stereo)
05 - Sing This All Together (See What Happens) (Remastered 2017 - Stereo)
06 - She’s A Rainbow (Remastered 2017 - Stereo)
07 - The Lantern (Remastered 2017 - Stereo)
08 - Gomper (Remastered 2017 - Stereo)
09 - 2000 Light Years From Home (Remastered 2017 - Stereo)
10 - On With The Show (Remastered 2017 - Stereo)
11 - Sing This All Together (Remastered 2016 - Mono)
12 - Citadel (Remastered 2016 - Mono)
13 - In Another Land (Remastered 2016 - Mono)
14 - 2000 Man (Remastered 2016 - Mono)
15 - Sing This All Together (See What Happens) (Remastered 2016 - Mono)
16 - She's A Rainbow (Remastered 2016 - Mono)
17 - The Lantern (Remastered 2016 - Mono)
18 - Gomper (Remastered 2016 - Mono)
19 - 2000 Light Years From Home (Remastered 2016 - Mono)
20 - On With The Show (Remastered 2016 - Mono)

Newly remastered by by Bob Ludwig at Gateway Mastering.

Analyzed: The Rolling Stones / Their Satanic Majesties Request (50th Anniversary Special Edition)
––––––––––––––––––––––––––––––––––––––––

DR Peak RMS Duration Track
––––––––––––––––––––––––––––––––––––––––
DR10 -6.27 dB -19.10 dB 3:47 01-Sing This All Together (Remastered 2017 - Stereo)
DR9 -6.16 dB -16.60 dB 2:51 02-Citadel (Remastered 2017 - Stereo)
DR9 -6.22 dB -18.90 dB 3:15 03-In Another Land (Remastered 2017 - Stereo)
DR6 -6.12 dB -14.11 dB 3:08 04-2000 Man (Remastered 2017 - Stereo)
DR9 -6.12 dB -18.66 dB 8:34 05-Sing This All Together (See What Happens) (Remastered 2017 - Stereo)
DR9 -6.22 dB -18.09 dB 4:35 06-She’s A Rainbow (Remastered 2017 - Stereo)
DR10 -6.23 dB -19.59 dB 4:24 07-The Lantern (Remastered 2017 - Stereo)
DR10 -6.35 dB -17.98 dB 5:09 08-Gomper (Remastered 2017 - Stereo)
DR11 -6.14 dB -20.09 dB 4:45 09-2000 Light Years From Home (Remastered 2017 - Stereo)
DR10 -6.10 dB -18.81 dB 3:39 10-On With The Show (Remastered 2017 - Stereo)
DR12 -6.23 dB -19.95 dB 3:46 11-Sing This All Together (Remastered 2016 - Mono)
DR10 -6.14 dB -17.08 dB 2:51 12-Citadel (Remastered 2016 - Mono)
DR10 -6.24 dB -19.75 dB 3:14 13-In Another Land (Remastered 2016 - Mono)
DR10 -6.71 dB -18.22 dB 3:08 14-2000 Man (Remastered 2016 - Mono)
DR11 -6.13 dB -19.72 dB 8:39 15-Sing This All Together (See What Happens) (Remastered 2016 - Mono)
DR10 -6.19 dB -18.66 dB 4:36 16-She's A Rainbow (Remastered 2016 - Mono)
DR10 -6.32 dB -19.11 dB 4:26 17-The Lantern (Remastered 2016 - Mono)
DR10 -6.60 dB -18.42 dB 5:10 18-Gomper (Remastered 2016 - Mono)
DR10 -6.13 dB -19.14 dB 4:45 19-2000 Light Years From Home (Remastered 2016 - Mono)
DR10 -6.74 dB -19.15 dB 3:41 20-On With The Show (Remastered 2016 - Mono)
––––––––––––––––––––––––––––––––––––––––

Number of tracks: 20
Official DR value: DR10

Samplerate: 2822400 Hz / PCM Samplerate: 88200 Hz
Channels: 2
Bits per sample: 1
Bitrate: 5645 kbps
Codec: DSD64
================================================================================


Analyzed: The Rolling Stones / Their Satanic Majesties Request (50th Anniversary Special Edition)
––––––––––––––––––––––––––––––––––––––––

DR Peak RMS Duration Track
––––––––––––––––––––––––––––––––––––––––
DR10 -0.27 dB -13.08 dB 3:47 01-Sing This All Together (Remastered 2017 - Stereo)
DR9 -0.16 dB -10.60 dB 2:51 02-Citadel (Remastered 2017 - Stereo)
DR9 -0.22 dB -12.90 dB 3:15 03-In Another Land (Remastered 2017 - Stereo)
DR6 -0.12 dB -8.11 dB 3:08 04-2000 Man (Remastered 2017 - Stereo)
DR9 -0.12 dB -12.66 dB 8:34 05-Sing This All Together (See What Happens) (Remastered 2017 - Stereo)
DR9 -0.22 dB -12.08 dB 4:35 06-She’s A Rainbow (Remastered 2017 - Stereo)
DR10 -0.23 dB -13.59 dB 4:24 07-The Lantern (Remastered 2017 - Stereo)
DR10 -0.35 dB -11.98 dB 5:09 08-Gomper (Remastered 2017 - Stereo)
DR11 -0.14 dB -14.09 dB 4:45 09-2000 Light Years From Home (Remastered 2017 - Stereo)
DR10 -0.10 dB -12.81 dB 3:39 10-On With The Show (Remastered 2017 - Stereo)
––––––––––––––––––––––––––––––––––––––––

Number of tracks: 10
Official DR value: DR9

Samplerate: 88200 Hz
Channels: 2
Bits per sample: 24
Bitrate: 2997 kbps
Codec: FLAC
================================================================================


Thanks to the Original customer!

NOTE 1:
I do not offer the FLAC version of the MONO album.
This version already available as part of "The Rolling Stones In Mono (2016)"
- Absolute identical files. Everything's the same (Mastering, DR, peaks, etc).

NOTE 2:
Offered early the 192 kHz version of this album have not audible difference to the 88 kHz version!
Moreover - placed here Stereo FLAC files were converted from DSD64 source without any clipping at the peaks.
The Mono album in FLAC and more available at the link above ^