Tags
Language
Tags
June 2024
Su Mo Tu We Th Fr Sa
26 27 28 29 30 31 1
2 3 4 5 6 7 8
9 10 11 12 13 14 15
16 17 18 19 20 21 22
23 24 25 26 27 28 29
30 1 2 3 4 5 6

The Rolling Stones - Emotional Rescue (1980) [Japanese Limited SHM-SACD 2011] PS3 ISO + DSD64 + Hi-Res FLAC

Posted By: HDAtall
The Rolling Stones - Emotional Rescue (1980) [Japanese Limited SHM-SACD 2011] PS3 ISO + DSD64 + Hi-Res FLAC

The Rolling Stones - Emotional Rescue (1980) [Japanese SHM-SACD 2011]
PS3 Rip | SACD ISO | DSD64 2.0 > 1-bit/2.8224 MHz | 41:14 minutes | Scans included | 1,22 GB
or DSD64 2.0 (from SACD-ISO to Tracks.dsf) > 1-bit/2.8224 MHz | Full Scans included | 1,09 GB
or FLAC (carefully converted & encoded to tracks) 24bit/96 kHz | Full Scans included | 976 MB

Emotional Rescue is the 15th British and 17th American studio album by The Rolling Stones, released in June 1980. Fresh off of the success of their prior album, Some Girls, which had been their biggest hit to date, the Rolling Stones returned to the studio in early 1979 to start writing and recording its follow-up. Full-time members Mick Jagger (vocals), Keith Richards (guitar), Ronnie Wood (guitar), Bill Wyman (bass), and Charlie Watts (drums) were joined by frequent collaborators Ian Stewart (keyboards), Nicky Hopkins (keyboards), Bobby Keys (saxophone) and Sugar Blue (harmonica).

Coasting on the success of Some Girls, the Stones offered more of the same on Emotional Rescue. Comprised of leftovers from the previous album's sessions and hastily written new numbers, Emotional Rescue may consist mainly of filler, but it's expertly written and performed filler. the Stones toss off throwaways like the reggae-fueled, mail-order bride anthem "Send It to Me" or rockers like "Summer Romance" and "Where the Boys Go" with an authority that makes the record a guilty pleasure, even if it's clear that only two songs – the icy but sexy disco-rock of "Emotional Rescue" and the revamped Chuck Berry rocker "She's So Cold" – come close to being classic Stones.

Tracklist:

01. Dance (pt. 1)
02. Summer Romance
03. Send It To Me
04. Let Me Go
05. Indian Girl
06. Where The Boys Go
07. Down In The Hole
08. Emotional Rescue
09. She's So Cold
10. All About You

DSD transferred from analogue master tapes by Mick McKenna & Richard Whittaker at the FX Copyroom.
Universal Japan # UIGY-9077

foobar2000 1.6.14 / Dynamic Range Meter 1.1.1

––––––––––––––––––––––––––––––––––––––––
Analyzed: The Rolling Stones / Emotional Rescue
––––––––––––––––––––––––––––––––––––––––

DR Peak RMS Duration Track
––––––––––––––––––––––––––––––––––––––––
DR15 -4.68 dB -21.21 dB 4:23 01-Dance (pt. 1)
DR12 -4.38 dB -18.85 dB 3:16 02-Summer Romance
DR16 -4.53 dB -22.57 dB 3:43 03-Send It To Me
DR13 -4.21 dB -20.13 dB 3:51 04-Let Me Go
DR15 -4.71 dB -22.62 dB 4:23 05-Indian Girl
DR14 -4.80 dB -20.12 dB 3:29 06-Where The Boys Go
DR15 -5.14 dB -22.36 dB 3:57 07-Down In The Hole
DR15 -4.02 dB -21.16 dB 5:40 08-Emotional Rescue
DR14 -4.71 dB -20.35 dB 4:12 09-She's So Cold
DR13 -5.98 dB -22.87 dB 4:18 10-All About You
––––––––––––––––––––––––––––––––––––––––

Number of tracks: 10
Official DR value: DR14

Samplerate: 2822400 Hz / PCM Samplerate: 176400 Hz
Channels: 2
Bits per sample: 1
Bitrate: 5645 kbps
Codec: DSD64


Thanks to PS³SACD!
Uncompressed SACD ISO size > 1,65 GB
>