The Rolling Stones - Exile On Main St. (1972) [Japanese Limited SHM-SACD 2011 # UIGY-9081] PS3 ISO + Hi-Res FLAC

Posted By: HDAtall
The Rolling Stones - Exile On Main St. (1972) [Japanese Limited SHM-SACD 2011 # UIGY-9081] PS3 ISO + Hi-Res FLAC

The Rolling Stones - Exile On Main St. (1972) [Japanese Limited SHM-SACD 2011]
PS3 Rip | SACD ISO | DSD64 2.0 > 1-bit/2.8224 MHz | 67:15 minutes | Scans included | 2,08 GB
or FLAC (converted with foobar2000 to tracks) 24bit/96 kHz | Full Scans included | 1,61 GB

Exile on Main St. is a studio album by English rock band the Rolling Stones. It was first released as a double album on May 12, 1972 by Rolling Stones Records and was the band's tenth studio album released in the United Kingdom. The tracks were recorded in 1969 and 1970 at Olympic Studios and Jagger's Stargroves country house in England during sessions for Sticky Fingers, and in the summer of 1971 at a rented villa named Nellcôte in the south of France. Guitarist Keith Richards had rented the villa to live in while the band lived abroad as tax exiles.

Greeted with decidedly mixed reviews upon its original release, Exile on Main St. has become generally regarded as the Rolling Stones' finest album. Part of the reason why the record was initially greeted with hesitant reviews is that it takes a while to assimilate. A sprawling, weary double album encompassing rock & roll, blues, soul, and country, Exile doesn't try anything new on the surface, but the substance is new. Taking the bleakness that underpinned Let It Bleed and Sticky Fingers to an extreme, Exile is a weary record, and not just lyrically. Jagger's vocals are buried in the mix, and the music is a series of dark, dense jams, with Keith Richards and Mick Taylor spinning off incredible riffs and solos. And the songs continue the breakthroughs of their three previous albums. No longer does their country sound forced or kitschy – it's lived-in and complex, just like the group's forays into soul and gospel. While the songs, including the masterpieces "Rocks Off," "Tumbling Dice," "Torn and Frayed," "Happy," "Let It Loose," and "Shine a Light," are all terrific, they blend together, with only certain lyrics and guitar lines emerging from the murk. It's the kind of record that's gripping on the very first listen, but each subsequent listen reveals something new. Few other albums, let alone double albums, have been so rich and masterful as Exile on Main St., and it stands not only as one of the Stones' best records, but sets a remarkably high standard for all of hard rock.

Tracklist:

01. Rocks Off
02. Rip This Joint
03. Shake Your Hips
04. Casino Boogie
05. Tumbling Dice
06. Sweet Virginia
07. Torn And Frayed
08. Sweet Black Angel
09. Loving Cup
10. Happy
11. Turd On The Run
12. Ventilator Blues
13. I Just Want To See His Face
14. Let It Loose
15. All Down The Line
16. Stop Breaking Down
17. Shine A Light
18. Soul Survivor

DSD transferred from analogue master tapes by Mick McKenna & Richard Whittaker at the FX Copyroom (2011).
Universal Japan # UIGY-9081

foobar2000 1.4.6 / Dynamic Range Meter 1.1.1

––––––––––––––––––––––––––––––––––––––––
Analyzed: The Rolling Stones / Exile On Main St.
––––––––––––––––––––––––––––––––––––––––

DR Peak RMS Duration Track
––––––––––––––––––––––––––––––––––––––––
DR10 -6.03 dB -18.40 dB 4:33 01-Rocks Off
DR10 -6.20 dB -18.13 dB 2:23 02-Rip This Joint
DR11 -7.81 dB -20.88 dB 3:00 03-Shake Your Hips
DR12 -6.05 dB -20.31 dB 3:34 04-Casino Boogie
DR11 -6.52 dB -18.87 dB 3:47 05-Tumbling Dice
DR12 -6.17 dB -21.58 dB 4:26 06-Sweet Virginia
DR11 -4.99 dB -18.35 dB 4:18 07-Torn And Frayed
DR11 -5.45 dB -19.43 dB 2:56 08-Sweet Black Angel
DR12 -4.40 dB -19.43 dB 4:26 09-Loving Cup
DR11 -5.33 dB -18.09 dB 3:05 10-Happy
DR9 -6.30 dB -16.64 dB 2:38 11-Turd On The Run
DR11 -6.39 dB -19.13 dB 3:25 12-Ventilator Blues
DR12 -8.94 dB -23.11 dB 2:53 13-I Just Want To See His Face
DR12 -5.64 dB -20.74 dB 5:19 14-Let It Loose
DR11 -5.67 dB -19.32 dB 3:49 15-All Down The Line
DR10 -5.15 dB -16.89 dB 4:35 16-Stop Breaking Down
DR13 -5.12 dB -21.92 dB 4:17 17-Shine A Light
DR10 -4.37 dB -16.66 dB 3:50 18-Soul Survivor
––––––––––––––––––––––––––––––––––––––––

Number of tracks: 18
Official DR value: DR11

Samplerate: 2822400 Hz / PCM Samplerate: 176400 Hz
Channels: 2
Bits per sample: 1
Bitrate: 5645 kbps
Codec: DSD64


Thanks to PS³SACD!
Uncompressed SACD ISO size > 2,71 GB
>