The Rolling Stones - Exile On Main St. (1972) [Japanese Limited SHM-SACD 2011] PS3 ISO + FLAC {RE-UP}

Posted By: HDAtall
The Rolling Stones - Exile On Main St. (1972) [Japanese Limited SHM-SACD 2011] PS3 ISO + FLAC {RE-UP}

The Rolling Stones - Exile On Main St. (1972) [Japanese Limited SHM-SACD 2011 # UIGY-9081]
PS3 Rip | SACD ISO | DSD64 2.0 > 1-bit/2.8224 MHz | 67:15 minutes | Scans included | 2,13 GB
or FLAC(converted with foobar2000 to tracks) 24bit/88,2 kHz | Full Scans included | 1,39 GB

Greeted with decidedly mixed reviews upon its original release, Exile on Main St. has become generally regarded as the Rolling Stones' finest album. Part of the reason why the record was initially greeted with hesitant reviews is that it takes a while to assimilate. A sprawling, weary double album encompassing rock & roll, blues, soul, and country, Exile doesn't try anything new on the surface, but the substance is new. Taking the bleakness that underpinned Let It Bleed and Sticky Fingers to an extreme, Exile is a weary record, and not just lyrically. Jagger's vocals are buried in the mix, and the music is a series of dark, dense jams, with Keith Richards and Mick Taylor spinning off incredible riffs and solos. And the songs continue the breakthroughs of their three previous albums. No longer does their country sound forced or kitschy – it's lived-in and complex, just like the group's forays into soul and gospel. While the songs, including the masterpieces "Rocks Off," "Tumbling Dice," "Torn and Frayed," "Happy," "Let It Loose," and "Shine a Light," are all terrific, they blend together, with only certain lyrics and guitar lines emerging from the murk. It's the kind of record that's gripping on the very first listen, but each subsequent listen reveals something new. Few other albums, let alone double albums, have been so rich and masterful as Exile on Main St., and it stands not only as one of the Stones' best records, but sets a remarkably high standard for all of hard rock.

Tracklist:

01. Rocks Off
02. Rip This Joint
03. Shake Your Hips
04. Casino Boogie
05. Tumbling Dice
06. Sweet Virginia
07. Torn And Frayed
08. Sweet Black Angel
09. Loving Cup
10. Happy
11. Turd On The Run
12. Ventilator Blues
13. I Just Want To See His Face
14. Let It Loose
15. All Down The Line
16. Stop Breaking Down
17. Shine A Light
18. Soul Survivor

Uses the 2011 DSD master based on UK original analog tape.
DSD transferred from analogue master tapes by Mick McKenna & Richard Whittaker at the FX Copyroom (2011).

foobar2000 1.1.17 / Dynamic Range Meter 1.1.1

––––––––––––––––––––––––––––––––––––––––
Analyzed: The Rolling Stones / Exile On Main St.
––––––––––––––––––––––––––––––––––––––––

DR Peak RMS Duration Track
––––––––––––––––––––––––––––––––––––––––
DR10 -6.40 dB -18.47 dB 4:33 01-Rocks Off
DR10 -6.52 dB -18.19 dB 2:23 02-Rip This Joint
DR11 -8.06 dB -20.97 dB 3:00 03-Shake Your Hips
DR12 -6.42 dB -20.40 dB 3:34 04-Casino Boogie
DR10 -6.68 dB -18.94 dB 3:47 05-Tumbling Dice
DR12 -6.36 dB -21.68 dB 4:26 06-Sweet Virginia
DR11 -5.06 dB -18.37 dB 4:18 07-Torn And Frayed
DR11 -5.59 dB -19.51 dB 2:56 08-Sweet Black Angel
DR11 -4.75 dB -19.51 dB 4:26 09-Loving Cup
DR11 -5.60 dB -18.15 dB 3:05 10-Happy
DR9 -6.51 dB -16.70 dB 2:38 11-Turd On The Run
DR11 -6.67 dB -19.21 dB 3:25 12-Ventilator Blues
DR11 -9.22 dB -23.24 dB 2:53 13-I Just Want To See His Face
DR11 -5.92 dB -20.83 dB 5:19 14-Let It Loose
DR11 -5.76 dB -19.40 dB 3:49 15-All Down The Line
DR10 -5.29 dB -16.95 dB 4:35 16-Stop Breaking Down
DR13 -5.34 dB -22.03 dB 4:17 17-Shine A Light
DR10 -4.48 dB -16.71 dB 3:50 18-Soul Survivor
––––––––––––––––––––––––––––––––––––––––

Number of tracks: 18
Official DR value: DR11

Samplerate: 2822400 Hz / PCM Samplerate: 88200 Hz
Channels: 2
Bits per sample: 24
Bitrate: 5645 kbps
Codec: DSD64


Thanks to PS³SACD!
Uncompressed SACD ISO size > 2,71 GB