Tags
Language
Tags
June 2024
Su Mo Tu We Th Fr Sa
26 27 28 29 30 31 1
2 3 4 5 6 7 8
9 10 11 12 13 14 15
16 17 18 19 20 21 22
23 24 25 26 27 28 29
30 1 2 3 4 5 6

The Rolling Stones - It's Only Rock 'N Roll (1974) [Japanese Limited SHM-SACD 2011 # UIGY-9069] PS3 ISO + DSD64 + Hi-Res FLAC

Posted By: HDAtall
The Rolling Stones - It's Only Rock 'N Roll (1974) [Japanese Limited SHM-SACD 2011 # UIGY-9069] PS3 ISO + DSD64 + Hi-Res FLAC

The Rolling Stones - It's Only Rock 'N Roll (1974) [Japanese Limited SHM-SACD 2011]
PS3 Rip | SACD ISO | DSD64 2.0 > 1-bit/2.8224 MHz | 49:12 minutes | Scans included | 1,5 GB
or DSD64 2.0 (from SACD-ISO to Tracks.dsf) > 1-bit/2.8224 MHz | Full Scans included | 1,34 GB
or FLAC (carefully converted & encoded to tracks) 24bit/96 kHz | Full Scans included | 1,15 GB

It's Only Rock 'n Roll is the 12th British and 14th American studio album by The Rolling Stones, released in October 1974. It was the last Rolling Stones album for guitarist Mick Taylor and the songwriting and recording of the album's title track had a connection to Taylor's eventual replacement, Ronnie Wood. The album also marked the 10th anniversary since the release of the band's debut album, The Rolling Stones. It's Only Rock 'n Roll combines the core blues and rock 'n' roll-oriented sound with elements of funk and reggae. It's Only Rock 'n Roll reached number one in the United States and number two in the UK.

It's uneven, but at times It's Only Rock 'n Roll catches fire. The songs and performances are stronger than those on Goats Head Soup; the tossed-off numbers sound effortless, not careless. Throughout, the Stones wear their title as the "World's Greatest Rock & Roll Band" with a defiant smirk, which makes the bitter cynicism of "If You Can't Rock Me" and the title track all the more striking, and the reggae experimentation of "Luxury," the aching beauty of "Time Waits for No One," and the agreeable filler of "Dance Little Sister" and "Short and Curlies" all the more enjoyable.

Tracklist:

01. If You Can't Rock Me
02. Ain't Too Proud To Beg
03. It's Only Rock 'n Roll (But I Like It)
04. Till The Next Goodbye
05. Time Waits For No One
06. Luxury
07. Dance Little Sister
08. If You Really Want To Be My Friend
09. Short And Curlies
10. Fingerprint File

DSD transferred from analogue master tapes by Mick McKenna & Richard Whittaker at the FX Copyroom.
Universal Japan # UIGY-9069

foobar2000 1.6.16 / Dynamic Range Meter 1.1.1

––––––––––––––––––––––––––––––––––––––––
Analyzed: The Rolling Stones / It's Only Rock 'n Roll
––––––––––––––––––––––––––––––––––––––––

DR Peak RMS Duration Track
––––––––––––––––––––––––––––––––––––––––
DR12 -4.92 dB -18.56 dB 3:48 01-If You Can't Rock Me
DR11 -5.73 dB -18.47 dB 3:32 02-Ain't Too Proud To Beg
DR11 -5.61 dB -18.91 dB 5:06 03-It's Only Rock 'n Roll (But I Like It)
DR11 -5.40 dB -21.11 dB 4:39 04-Till The Next Goodbye
DR10 -5.68 dB -18.10 dB 6:48 05-Time Waits For No One
DR12 -5.33 dB -19.03 dB 5:03 06-Luxury
DR11 -5.08 dB -18.09 dB 4:12 07-Dance Little Sister
DR11 -5.33 dB -19.39 dB 6:19 08-If You Really Want To Be My Friend
DR12 -6.06 dB -19.90 dB 2:45 09-Short And Curlies
DR10 -6.06 dB -19.45 dB 7:01 10-Fingerprint File
––––––––––––––––––––––––––––––––––––––––

Number of tracks: 10
Official DR value: DR11

Samplerate: 2822400 Hz / PCM Samplerate: 176400 Hz
Channels: 2
Bits per sample: 1
Bitrate: 5645 kbps
Codec: DSD64


Thanks to PS³SACD!
Uncompressed SACD ISO size > 1,97 GB
>