Tags
Language
Tags
June 2024
Su Mo Tu We Th Fr Sa
26 27 28 29 30 31 1
2 3 4 5 6 7 8
9 10 11 12 13 14 15
16 17 18 19 20 21 22
23 24 25 26 27 28 29
30 1 2 3 4 5 6

The Rolling Stones - Some Girls (1978) [Japanese Limited SHM-SACD 2012 # UIGY-9083] PS3 ISO + DSD64 + DSD64 + Hi-Res FLAC

Posted By: HDAtall
The Rolling Stones - Some Girls (1978) [Japanese Limited SHM-SACD 2012 # UIGY-9083] PS3 ISO + DSD64 + DSD64 + Hi-Res FLAC

The Rolling Stones - Some Girls (1978) [Japanese Limited SHM-SACD 2012]
PS3 Rip | SACD ISO | DSD64 2.0 > 1-bit/2.8224 MHz | 41:01 minutes | Scans included | 1,25 GB
or DSD64 2.0 (from SACD-ISO to Tracks.dsf) > 1-bit/2.8224 MHz | Full Scans included | 1,13 GB
or FLAC (carefully converted & encoded to tracks) 24bit/96 kHz | Full Scans included | 984 MB

Some Girls is the 14th British and 16th American studio album by the Rolling Stones, released in June 1978 on Rolling Stones Records. It was the first album to feature guitarist Ronnie Wood as a full-time member; joining founder members Mick Jagger (vocals), Keith Richards (guitar), Bill Wyman (bass) and Charlie Watts (drums). Some Girls reached number one on the Billboard 200 album chart, and became the band's top selling album in the United States, certified by the RIAA as having six million copies sold as of 2000. It was a major critical success, becoming the only Rolling Stones album to be nominated for a Grammy in the Album of the Year category.

During the mid-'70s, the Rolling Stones remained massively popular, but their records suffered from Jagger's fascination with celebrity and Keith's worsening drug habit. By 1978, both punk and disco had swept the group off the front pages, and Some Girls was their fiery response to the younger generation. Opening with the disco-blues thump of "Miss You," Some Girls is a tough, focused, and exciting record, full of more hooks and energy than any Stones record since Exile on Main St. Even though the Stones make disco their own, they never quite take punk on their own ground. Instead, their rockers sound harder and nastier than they have in years. Using "Star Star" as a template, the Stones run through the seedy homosexual imagery of "When the Whip Comes Down," the bizarre, borderline-misogynistic vitriol of the title track, Keith's ultimate outlaw anthem, "Before They Make Me Run," and the decadent closer, "Shattered." In between, they deconstruct the Temptations' "(Just My) Imagination," unleash the devastatingly snide country parody "Far Away Eyes," and contribute "Beast of Burden," one of their very best ballads. Some Girls may not have the back-street aggression of their '60s records, or the majestic, drugged-out murk of their early-'70s work, but its brand of glitzy, decadent hard rock still makes it a definitive Stones album.

Tracklist:

01. Miss You
02. When the Whip Comes Down
03. Just My Imagination (Running Away With Me)
04. Some Girls
05. Lies
06. Far Away Eyes
07. Respectable
08. Before They Make Me Run
09. Beast Of Burden
10. Shattered

DSD transferred from analogue master tapes by Mick McKenna & Richard Whittaker at the FX Copyroom.
Universal Japan # UIGY-9083

foobar2000 1.6.16 / Dynamic Range Meter 1.1.1

––––––––––––––––––––––––––––––––––––––––
Analyzed: The Rolling Stones / Some Girls
––––––––––––––––––––––––––––––––––––––––

DR Peak RMS Duration Track
––––––––––––––––––––––––––––––––––––––––
DR13 -4.43 dB -19.28 dB 4:50 01-Miss You
DR11 -4.40 dB -16.94 dB 4:21 02-When the Whip Comes Down
DR11 -4.37 dB -16.84 dB 4:40 03-Just My Imagination (Running Away With Me)
DR11 -4.39 dB -17.82 dB 4:40 04-Some Girls
DR11 -4.51 dB -16.56 dB 3:13 05-Lies
DR12 -5.42 dB -20.05 dB 4:25 06-Far Away Eyes
DR10 -5.39 dB -16.30 dB 3:09 07-Respectable
DR10 -5.43 dB -16.56 dB 3:27 08-Before They Make Me Run
DR11 -5.39 dB -18.32 dB 4:27 09-Beast Of Burden
DR10 -5.60 dB -16.82 dB 3:50 10-Shattered
––––––––––––––––––––––––––––––––––––––––

Number of tracks: 10
Official DR value: DR11

Samplerate: 2822400 Hz / PCM Samplerate: 176400 Hz
Channels: 2
Bits per sample: 1
Bitrate: 5645 kbps
Codec: DSD64


Thanks to PS³SACD!
Uncompressed SACD ISO size > 1,64 GB
>