The Rolling Stones - Their Satanic Majesties Request: 50th Anniversary Edition (1967) [Japan 2017] PS3 ISO + Hi-Res FLAC

Posted By: HDAtall
The Rolling Stones - Their Satanic Majesties Request: 50th Anniversary Edition (1967) [Japan 2017] PS3 ISO + Hi-Res FLAC

The Rolling Stones - Their Satanic Majesties Request: 50th Anniversary Edition (1967) [Japan 2017]
PS3 Rip | SACD ISO | DSD64 2.0 > 1-bit/2.8224 MHz | 44:09/44:21 minutes | Scans included | 1,9 GB
or FLAC(converted with foobar2000 to tracks) 24bit/96 kHz | Full Scans included | 1,58 GB
2x SACD Set | Features New Stereo & Mono Remaster | Universal Japan # UIGY-9707/8

50th Anniversary Special Audiophile Edition of The Rolling Stones' sixth British and eighth American studio album. This set includes Stereo and Mono versions of "Their Satanic Majesties Request". Both recordings newly remastered by Bob Ludwig at Gateway Mastering. The artwork's package features restored original Lenticular, not available for over 30 years. The 20-page book, with essay by Rob Bowman, includes Michael Cooper's photos from original cover shoot, plus japanese booklet with some additional covers.

Without a doubt, no Rolling Stones album – and, indeed, very few rock albums from any era – split critical opinion as much as the Rolling Stones' psychedelic outing. Many dismiss the record as sub-Sgt. Pepper posturing; others confess, if only in private, to a fascination with the album's inventive arrangements, which incorporated some African rhythms, Mellotrons, and full orchestration. What's clear is that never before or after did the Stones take so many chances in the studio. (Some critics and fans feel that the record has been unfairly undervalued, partly because purists expect the Stones to constantly champion a blues 'n' raunch worldview.) About half the material is very strong, particularly the glorious "She's a Rainbow," with its beautiful harmonies, piano, and strings; the riff-driven "Citadel"; the hazy, dreamlike "In Another Land," Bill Wyman's debut writing (and singing) credit on a Stones release; and the majestically dark and doomy cosmic rocker "2000 Light Years from Home," with some of the creepiest synthesizer effects (devised by Brian Jones) ever to grace a rock record. The downfall of the album was caused by some weak songwriting on the lesser tracks, particularly the interminable psychedelic jam "Sing This All Together (See What Happens)." It's a much better record than most people give it credit for being, though, with a strong current of creeping uneasiness that undercuts the gaudy psychedelic flourishes. In 1968, the Stones would go back to the basics, and never wander down these paths again, making this all the more of a fascinating anomaly in the group's discography.

Tracklist*:

01. Sing This All Together
02. Citadel
03. In Another Land
04. 2000 Man
05. Sing This All Together (See What Happens)
06. She's A Rainbow
07. The Lantern
08. Gomper
09. 2000 Light Years From Home
10. On With The Show

* Disc 1 in Stereo / Disc 2 in Mono.
Mastered by Bob Ludwig at Gateway Mastering.

foobar2000 1.4 / Dynamic Range Meter 1.1.1

––––––––––––––––––––––––––––––––––––––––
Analyzed: The Rolling Stones / Their Satanic Majesties Request 50th Anniversary Special Edition - Stereo
––––––––––––––––––––––––––––––––––––––––

DR Peak RMS Duration Track
––––––––––––––––––––––––––––––––––––––––
DR11 -5.62 dB -18.90 dB 3:47 01-Sing This All Together
DR9 -5.40 dB -16.48 dB 2:51 02-Citadel
DR10 -5.49 dB -18.71 dB 3:15 03-In Another Land
DR7 -5.22 dB -14.04 dB 3:08 04-2000 Man
DR10 -5.40 dB -18.46 dB 8:34 05-Sing This All Together (See What Happens)
DR10 -5.37 dB -17.93 dB 4:35 06-She's A Rainbow
DR11 -5.67 dB -19.38 dB 4:24 07-The Lantern
DR10 -5.81 dB -17.84 dB 5:09 08-Gomper
DR11 -5.59 dB -19.82 dB 4:45 09-2000 Light Years From Home
DR11 -5.50 dB -18.69 dB 3:43 10-On With The Show
––––––––––––––––––––––––––––––––––––––––

Number of tracks: 10
Official DR value: DR10

Samplerate: 2822400 Hz / PCM Samplerate: 176400 Hz
Channels: 2
Bits per sample: 1
Bitrate: 5645 kbps
Codec: DSD64

================================================================================

Analyzed: The Rolling Stones / Their Satanic Majesties Request 50th Anniversary Special Edition - Mono
––––––––––––––––––––––––––––––––––––––––

DR Peak RMS Duration Track
––––––––––––––––––––––––––––––––––––––––
DR12 -5.75 dB -19.76 dB 3:47 01-Sing This All Together
DR10 -5.40 dB -16.96 dB 2:51 02-Citadel
DR11 -5.63 dB -19.56 dB 3:13 03-In Another Land
DR10 -6.32 dB -18.09 dB 3:08 04-2000 Man
DR11 -5.63 dB -19.53 dB 8:39 05-Sing This All Together (See What Happens)
DR10 -5.83 dB -18.51 dB 4:36 06-She's A Rainbow
DR10 -5.94 dB -18.94 dB 4:26 07-The Lantern
DR11 -5.89 dB -18.27 dB 5:10 08-Gomper
DR11 -5.56 dB -18.98 dB 4:45 09-2000 Light Years From Home
DR10 -6.57 dB -19.09 dB 3:45 10-On With The Show
––––––––––––––––––––––––––––––––––––––––

Number of tracks: 10
Official DR value: DR11

Samplerate: 2822400 Hz / PCM Samplerate: 176400 Hz
Channels: 2
Bits per sample: 1
Bitrate: 5645 kbps
Codec: DSD64


Thanks to PS³SACD!
Uncompressed SACD ISO size > 2x 1,77 GB
>