Tags
Language
Tags

Ron Carter - Golden Striker: Live at Theaterstubchen Kassel (2017) [Official Digital Download 24-bit/96kHz]

Posted By: HDV
Ron Carter - Golden Striker: Live at Theaterstubchen Kassel (2017) [Official Digital Download 24-bit/96kHz]

Ron Carter - Golden Striker: Live at Theaterstübchen Kassel (2017)
FLAC (tracks) 24-bit/96 kHz | Time - 68:03 minutes | 1,24 GB
Studio Master, Official Digital Download | Artwork: Front cover

This live recording of straight ahead jazz features the great Ron Carter on bass, Donald Vega on piano and Russell Malone on guitar. The three of them are smack dab right in front of you with the bass dead center, the piano panned to the left and guitar to the right. Excellent playing and a ton of fun.

Tracklist:

01 - Laverne Walk
02 - Candle Light
03 - Golden Striker
04 - Samba de Orfeu
05 - Eddie's Theme
06 - A Nice Song
07 - My Funny Valentine
08 - Cedar Tree (Bonus Track)

Musicians:
Ron Carter - double bass
Donald Vega - piano
Russell Malone - guitar

Analyzed: Ron Carter / Golden Striker (Live at Theaterstübchen Kassel)
––––––––––––––––––––––––––––––––––––––––

DR Peak RMS Duration Track
––––––––––––––––––––––––––––––––––––––––
DR12 -1.06 dB -16.56 dB 12:17 01-Laverne Walk
DR13 -1.06 dB -17.91 dB 6:48 02-Candle Light
DR11 -1.06 dB -15.10 dB 7:47 03-Golden Striker
DR12 -7.10 dB -23.41 dB 7:20 04-Samba de Orfeu
DR12 -1.06 dB -15.76 dB 9:14 05-Eddie's Theme
DR12 -1.19 dB -18.27 dB 7:27 06-A Nice Song
DR15 -1.17 dB -21.15 dB 10:45 07-My Funny Valentine
DR12 -1.06 dB -15.36 dB 6:26 08-Cedar Tree (Bonus Track)
––––––––––––––––––––––––––––––––––––––––

Number of tracks: 8
Official DR value: DR12

Samplerate: 96000 Hz
Channels: 2
Bits per sample: 24
Bitrate: 2506 kbps
Codec: FLAC
================================================================================


Thanks to the Original customer!