Tags
Language
Tags

Rory Block - Hard Luck Child: A Tribute To Skip James (2014) [Official Digital Download 24-bit/96kHz]

Posted By: HDV
Rory Block - Hard Luck Child: A Tribute To Skip James (2014) [Official Digital Download 24-bit/96kHz]

Rory Block - Hard Luck Child: A Tribute To Skip James (2014)
FLAC (tracks) 24-bit/96 kHz | Time - 45:35 minutes | 930 MB
Studio Master, Official Digital Download | Artwork: Front cover

Rory Block is the most celebrated living female acoustic blues artist. On her fifth release in the acclaimed 'Mentor Series' on Stony Plain, Rory pays tribute to Skip James, one of the most important country blues artists in history. Rory actively tours internationally and each new release is a high profile occasion in the blues community. "Today, she is regarded as the top female interpreter and authority on traditional blues worldwide".

Rory Block is simply one of the finest living interpreters of vintage acoustic blues, a guitarist who understands both the technique and the spirit of the great country blues artists of the '20s and '30s. As a teenager, Block had the good fortune to meet some of the founding fathers of the country blues, and her "Mentor Series" has found her recording songs by some of these pioneering artists. 2014's Hard Luck Child: A Tribute to Skip James is the fifth album in the series, and features solo acoustic performances of nine songs from James's songbook, as well as one original tune, "Nehemiah James," penned by Block and based on James' life story. Block's guitar work on this album is typically splendid, capturing the rudiments of Skip James' style while adding just enough of her own personality that the listener can see not just what Block learned from James, but how it evolved when it was fused with her own musical thinking. (Block does appear to occasionally beef up her picking with some discreet overdubs, but the overall effect feels comfortable and organic.) Block is a guitarist first and a vocalist second, but on Hard Luck Child her voice is in fine form, and she brings a confidence and subtle emotional force to "Devil Got My Woman," "Hard Time Killing Floor Blues," and "I'm So Glad" that mirror her understanding of this music. Hard Luck Child was recorded in Block's home, and engineer Rob Davis does excellent work here, giving Block's guitar and vocals an intimate presence that suggests an updated, high-fidelity version of James'78s for Paramount. Hard Luck Child is an album that honors the legacy of Skip James while confirming that Block is one of the few artists in contemporary blues who can not only play his music well, but understands the ideas behind it as well as the art; for fans of acoustic blues, this is highly recommended.

Tracklist:

01 - Nehemiah James
02 - Special Rider Blues
03 - Cypress Grove Blues
04 - If You Haven't Any Hay, Get on Down the Road
05 - Little Cow and Calf Is Gonna Die Blues
06 - Devil Got My Woman
07 - Jesus Is a Mighty Good Leader
08 - Hard Time Killing Floor Blues
09 - I'm so Glad
10 - Hard Luck Child

Analyzed: Rory Block / Hard Luck Child A Tribute to Skip James
––––––––––––––––––––––––––––––––––––––––

DR Peak RMS Duration Track
––––––––––––––––––––––––––––––––––––––––
DR8 0.00 dB -9.61 dB 5:31 01-Nehemiah James
DR7 0.00 dB -9.65 dB 5:00 02-Special Rider Blues
DR9 0.00 dB -11.72 dB 4:29 03-Cypress Grove Blues
DR10 -0.11 dB -12.33 dB 4:21 04-If You Haven't Any Hay, Get on Down the Road
DR8 0.00 dB -10.13 dB 5:18 05-Little Cow and Calf Is Gonna Die Blues
DR10 0.00 dB -12.84 dB 4:45 06-Devil Got My Woman
DR6 0.00 dB -8.78 dB 4:06 07-Jesus Is a Mighty Good Leader
DR8 -0.30 dB -10.76 dB 4:15 08-Hard Time Killing Floor Blues
DR8 0.00 dB -9.82 dB 3:20 09-I'm so Glad
DR10 0.00 dB -11.98 dB 4:30 10-Hard Luck Child
––––––––––––––––––––––––––––––––––––––––

Number of tracks: 10
Official DR value: DR8

Samplerate: 96000 Hz
Channels: 2
Bits per sample: 24
Bitrate: 2624 kbps
Codec: FLAC
================================================================================


Thanks to the Original customer!