Roswell Rudd, Fay Victor, Lafayette Harris, Ken Filiano - Embrace (2017) [Official Digital Download]

Posted By: HDV
Roswell Rudd, Fay Victor, Lafayette Harris, Ken Filiano - Embrace (2017) [Official Digital Download]

Roswell Rudd, Fay Victor, Lafayette Harris, Ken Filiano - Embrace (2017)
FLAC (tracks) 24-bit/44,1 kHz | Time - 65:10 minutes | 611 MB
Studio Master, Official Digital Download | Artwork: Front cover

The adventurous trombonist and composer Roswell Rudd made a decided shift in direction on his first RareNoise Records release as a leader by embracing jazz standards he has loved and played throughout his long and illustrious career. Accompanied by the brilliant pianist Lafayette Harris, upright bass virtuoso Ken Filiano and soulful vocal sensation Fay Victor, the 81 year old jazz master delivers with rare potency and poignancy on the aptly titled "Embrace". This intimate, drum Less quartet session is brimming with conversational playing between all the participants, with Rudd and Victor partaking in some particularly interactive exchanges on jazz classics like Billy Strayhorn’s “Something to Live For”, Charles Mingus’ “Goodbye Pork Pie Hat”, Thelonious Monk’s beautiful ballad “Pannonica”, the standard “Can’t We Be Friends” and the traditional “House of the Rising Sun”.


Arriving mere weeks before Roswell Rudd’s passing late last year, Embrace can’t help but take on a valedictory air. It may very well be the final gift left to us by one of jazz’s most singular personalities. Rudd’s goodbye comes not in the shape of a free-blowing fête, Dixieland throwback or Malian encounter, but through expansive interpretations of standards that stretch the fabric of what we often take for granted. “Goodbye Pork Pie Hat,” for example, ditches its dirge-like demeanor and adopts a party vibe, and “I Hadn’t Anyone Till You” opens with drunken warbling before settling into its swinging comfort zone. Each familiar favorite on the playlist proves both pliable and durable when filtered through this drummer-less quartet.

The art of inflection, the painting of broad expository strokes and a synergistic spirit are the greatest virtues of this music. Rudd’s stylishly coarse lyricism offers a slightly different perspective on classics like “Something to Live For,” while his horn’s 50 shades of bray enliven the most active of scenarios. Vocalist Fay Victor’s scat chops and self-assured flexibility lend themselves well to these settings, and mark her as a kindred spirit of Rudd’s. Pianist Lafayette Harris acts as foil and straight man with his classy chording, and bassist Ken Filiano’s mastery of pitch and time allows him to tighten and slacken the reins as he sees fit. Embrace is an album that reminds us that Roswell Rudd’s slide carried the entire sweep of jazz history in its movements. But it also affirms the very notion of this music as a form of collaborative high art.

Tracklist:

01 - Something to Live For
02 - Goodbye Pork Pie Hat
03 - Can't We Be Friends
04 - I Hadn't Anyone Till You
05 - Too Late Now
06 - House of the Rising Sun
07 - I Look in the Mirror
08 - Pannonica

Recorded & Mixed by Jamie Saft at Potterville International Studios, Catskills, NY.

Musicians:
Roswell Rudd - trombone
Fay Victor - vocals
Lafayette Harris - piano
Ken Filiano - double bass

Analyzed: Roswell Rudd, Fay Victor, Lafayette Harris, Ken Filiano / Embrace
––––––––––––––––––––––––––––––––––––––––

DR Peak RMS Duration Track
––––––––––––––––––––––––––––––––––––––––
DR10 -0.99 dB -14.84 dB 8:22 01-Something to Live For
DR11 -0.99 dB -13.06 dB 6:40 02-Goodbye Pork Pie Hat
DR11 -0.99 dB -14.26 dB 7:46 03-Can't We Be Friends
DR8 -0.99 dB -12.62 dB 7:21 04-I Hadn't Anyone Till You
DR13 -0.99 dB -17.22 dB 11:34 05-Too Late Now
DR10 -0.99 dB -14.38 dB 8:17 06-House of the Rising Sun
DR9 -0.99 dB -11.41 dB 4:38 07-I Look in the Mirror
DR12 -0.99 dB -15.44 dB 10:32 08-Pannonica
––––––––––––––––––––––––––––––––––––––––

Number of tracks: 8
Official DR value: DR10

Samplerate: 44100 Hz
Channels: 2
Bits per sample: 24
Bitrate: 1211 kbps
Codec: FLAC
================================================================================


Thanks to the Original customer!