Roy Orbison - Black And White Night (1989) [2004 Remaster] {2.0 & 5.1} PS3 ISO + FLAC {RE-UP}

Posted By: HDAtall
Roy Orbison - Black And White Night (1989) [2004 Remaster] {2.0 & 5.1} PS3 ISO + FLAC {RE-UP}

Roy Orbison - Black And White Night (1989) [2004 Remaster] {2.0 & 5.1}
PS3 Rip | SACD ISO | DST64 2.0 & 5.1 > 1-bit/2.8224 MHz | 65:14 minutes | Scans included | 3,91 GB
or FLAC 2.0 Stereo (converted with foobar2000 to tracks) 24bit/88,2 kHz | Scans included | 1,41 GB

Black & White Night, the live album, was compiled and released posthumously from the television special. The album was released in February 1989 and included the songs “Blue Bayou” and “Claudette” that were cut from the original broadcast for time. However it did not include the song “Blue Angel” which was cut from the original broadcast for the same reason.

The best-recorded Roy Orbison live disc ever issued, taken from the soundtrack of the HBO concert from the 1980s with VIP guests like Bruce Springsteen and Elvis Costello. This was a sort of magical video, and the performances are splendid, along with the good feelings involved. On the other hand, the performances are extremely reverential to the established studio versions of the songs (all of the hits are here), and intended to mimic them, so this isn’t quite the same as a live album as it would have been done back when. The pity is that neither Monument nor MGM ever taped any complete concerts by Orbison from the 1960s, and all that remains are TV appearances from Europe.

Tracklist:

01. Only The Lonely
02. Dream Baby (How Long Must I Dream)
03. Blue Bayou
04. The Comedians
05. Ooby Dooby
06. Leah
07. Running Scared
08. Uptown
09. In Dreams
10. Crying
11. Candy Man
12. Go, Go, Go (Down The Line)
13. Mean Woman Blues
14. Dream You
15. Claudette
16. It's Over
17. Oh, Pretty Woman
18. Blue Angel

foobar2000 1.2.1 / Dynamic Range Meter 1.1.1

––––––––––––––––––––––––––––––––––––––––
Analyzed: Roy Orbison / Black And White Night
––––––––––––––––––––––––––––––––––––––––

DR Peak RMS Duration Track
––––––––––––––––––––––––––––––––––––––––
DR12 -5.83 dB -21.44 dB 3:38 01-Only The Lonely
DR10 -5.76 dB -18.50 dB 3:58 02-Dream Baby (How Long Must I Dream)
DR13 -5.87 dB -22.57 dB 3:17 03-Blue Bayou
DR12 -6.04 dB -22.77 dB 3:31 04-The Comedians
DR13 -6.02 dB -21.02 dB 4:09 05-Ooby Dooby
DR11 -6.03 dB -19.63 dB 3:05 06-Leah
DR11 -5.82 dB -20.53 dB 2:33 07-Running Scared
DR12 -5.97 dB -20.04 dB 3:23 08-Uptown
DR11 -5.88 dB -19.45 dB 3:06 09-In Dreams
DR10 -5.82 dB -19.10 dB 3:15 10-Crying
DR11 -5.88 dB -19.36 dB 3:33 11-Candy Man
DR12 -5.85 dB -18.77 dB 5:29 12-Go, Go, Go (Down The Line)
DR11 -5.76 dB -18.98 dB 3:00 13-Mean Woman Blues
DR11 -5.98 dB -18.80 dB 3:39 14-Dream You
DR13 -5.79 dB -20.00 dB 3:00 15-Claudette
DR11 -5.97 dB -20.01 dB 3:09 16-It's Over
DR11 -5.83 dB -19.14 dB 6:19 17-Oh, Pretty Woman
DR11 -5.66 dB -17.80 dB 3:11 18-Blue Angel
––––––––––––––––––––––––––––––––––––––––

Number of tracks: 18
Official DR value: DR11

Samplerate: 2822400 Hz / PCM Samplerate: 88200 Hz
Channels: 6
Bits per sample: 24
Bitrate: 16934 kbps
Codec: DST64
================================================================================

––––––––––––––––––––––––––––––––––––––––
Analyzed: Roy Orbison / Black And White Night
––––––––––––––––––––––––––––––––––––––––

DR Peak RMS Duration Track
––––––––––––––––––––––––––––––––––––––––
DR9 -6.06 dB -17.76 dB 3:38 01-Only The Lonely
DR7 -6.01 dB -14.77 dB 3:58 02-Dream Baby (How Long Must I Dream)
DR10 -6.09 dB -18.30 dB 3:17 03-Blue Bayou
DR9 -6.11 dB -18.94 dB 3:31 04-The Comedians
DR10 -6.08 dB -17.85 dB 4:09 05-Ooby Dooby
DR8 -6.07 dB -15.50 dB 3:05 06-Leah
DR7 -6.08 dB -16.70 dB 2:33 07-Running Scared
DR9 -6.07 dB -16.55 dB 3:23 08-Uptown
DR7 -6.08 dB -15.56 dB 3:06 09-In Dreams
DR7 -6.08 dB -15.14 dB 3:15 10-Crying
DR8 -6.06 dB -15.78 dB 3:33 11-Candy Man
DR8 -6.03 dB -15.36 dB 5:29 12-Go, Go, Go (Down The Line)
DR7 -6.02 dB -15.33 dB 3:00 13-Mean Woman Blues
DR7 -6.08 dB -15.08 dB 3:39 14-Dream You
DR9 -5.87 dB -16.29 dB 3:00 15-Claudette
DR7 -6.10 dB -16.02 dB 3:09 16-It's Over
DR7 -6.03 dB -15.43 dB 6:19 17-Oh, Pretty Woman
DR6 -5.96 dB -13.97 dB 3:11 18-Blue Angel
––––––––––––––––––––––––––––––––––––––––

Number of tracks: 18
Official DR value: DR8

Samplerate: 2822400 Hz / PCM Samplerate: 88200 Hz
Channels: 2
Bits per sample: 24
Bitrate: 5645 kbps
Codec: DST64


Uncompressed SACD ISO size > 3,71 GB
Thanks to PS³SACD!