Tags
Language
Tags

Rudolf Kempe, Bamberg SO - Brahms, Schubert, Mozart, Bizet (1964) [Japan 2016] SACD ISO + Hi-Res FLAC

Posted By: HDAtall
Rudolf Kempe, Bamberg SO - Brahms, Schubert, Mozart, Bizet (1964) [Japan 2016] SACD ISO + Hi-Res FLAC

Rudolf Kempe, Bamberg Symphony Orhestra - Brahms, Schubert, Mozart, Bizet (1964) [Japan 2016]
SACD Rip | 2x SACD ISO | DSD64 2.0 > 1-bit/2.8224 MHz | 154:20 minutes | Some Scans included | 4,17 GB
or FLAC 2.0 Stereo (converted with foobar2000 to tracks) 24bit/96 kHz | Some Scans included | 3,42 GB

A compilation of all recordings for Eurodisk label by Rudolf Kempe and Bamberg Symphony Orhestra. For these times, recording by Eurodisk were outstanding due to professional engineering and excellent recording technology. As a result of careful rehearsal and neat work, you can enjoy the splendor of playing and the excellence of recording even in modern times. In particular, the discovery of the "genuine" original master tape in Germany, which was discovered in recent years, brought back an amazing sound quality. With this re-release, we have newly introduced the latest mastering, including those that were not SACD in the past, so the whole picture is finally revealed.

Tracklist

DISC ONE:
01. Brahms: Symphony No.2 I-Allegro non troppo
02. Brahms: Symphony No.2 II-Adagio non troppo
03. Brahms: Symphony No.2 III-Allegretto grazioso
04. Brahms: Symphony No.2 IV-Allegro con spirito
05. Brahms: Variations on a theme by Haydn
06. Weber: Euryanthe,Overture
07. Smetana: From Bohemia's Woods and Fields

DISC TWO:
01. Schubert: Symphony No.8(7)"Unfinished" I-Allegro moderato
02. Schubert: Symphony No.8(7)"Unfinished" II-Andante con moto
03. Mozart: Serenade "Eine kleine Nachtmusik" I-Allegro
04. Mozart: Serenade "Eine kleine Nachtmusik" II-Romanze.Andante
05. Mozart: Serenade "Eine kleine Nachtmusik" III-Menuetto.Allegretto
06. Mozart: Serenade "Eine kleine Nachtmusik" IV-Rondo.Allegro
07. Bizet: L'Arlesienne, Suite 1 1-Prelude
08. Bizet: L'Arlesienne, Suite 1 2-Minuetto
09. Bizet: L'Arlesienne, Suite 1 3-Adagietto
10. Bizet: L'Arlesienne, Suite 1 4-Carillon
11. Bizet: L'Arlesienne, Suite 2 1-Pastorale
12. Bizet: L'Arlesienne, Suite 2 2-Intermezzo
13. Bizet: L'Arlesienne, Suite 2 3-Menuet
14. Bizet: L'Arlesienne, Suite 2 4-Farandole

Recorded on June 4-12, 1963.
Disc 1 was re-mastered in 24-bit/192kHz
Disc 2 was re-mastered in 24-bit/96kHz

foobar2000 1.5.3 / Dynamic Range Meter 1.1.1

––––––––––––––––––––––––––––––––––––––––
Analyzed: Rudolf Kempe conducting Bamberg Symphony Orchestra / Kempe & Bamberg Symphony Orchestra Eurodisc Recordings
––––––––––––––––––––––––––––––––––––––––

DR Peak RMS Duration Track
––––––––––––––––––––––––––––––––––––––––
DR12 -5.44 dB -22.66 dB 15:53 01-Brahms:Symphony No.2 I-Allegro non troppo
DR13 -6.32 dB -23.99 dB 9:47 02-Brahms:Symphony No.2 II-Adagio non troppo
DR14 -7.14 dB -25.64 dB 5:20 03-Brahms:Symphony No.2 III-Allegretto grazioso
DR12 -5.75 dB -21.39 dB 9:19 04-Brahms:Symphony No.2 IV-Allegro con spirito
DR12 -6.31 dB -22.52 dB 16:26 05-Brahms:Variations on a theme by Haydn
DR12 -6.23 dB -22.57 dB 9:09 06-Weber: Euryanthe,Overture
DR12 -6.04 dB -21.92 dB 11:43 07-Smetana: From Bohemia's Woods and Fields
––––––––––––––––––––––––––––––––––––––––

Number of tracks: 7
Official DR value: DR12

Samplerate: 2822400 Hz / PCM Samplerate: 176400 Hz
Channels: 2
Bits per sample: 1
Bitrate: 5645 kbps
Codec: DSD64
================================================================================

––––––––––––––––––––––––––––––––––––––––
Analyzed: Rudolf Kempe conducting Bamberg Symphony Orchestra / Kempe & Bamberg Symphony Orchestra Eurodisc Recordings
––––––––––––––––––––––––––––––––––––––––

DR Peak RMS Duration Track
––––––––––––––––––––––––––––––––––––––––
DR14 -6.13 dB -25.36 dB 11:42 01-Schubert:Symphony No.8(7)"Unfinished" I-Allegro moderato
DR14 -6.08 dB -26.45 dB 12:40 02-Schubert:Symphony No.8(7)"Unfinished" II-Andante con moto
DR14 -7.47 dB -26.41 dB 7:57 03-Mozart:Serenade "Eine kleine Nachtmusik" I-Allegro
DR14 -7.12 dB -27.87 dB 5:23 04-Mozart:Serenade "Eine kleine Nachtmusik" II-Romanze.Andante
DR14 -8.14 dB -26.15 dB 2:10 05-Mozart:Serenade "Eine kleine Nachtmusik" III-Menuetto.Allegretto
DR13 -10.56 dB -27.03 dB 2:58 06-Mozart:Serenade "Eine kleine Nachtmusik" IV-Rondo.Allegro
DR14 -6.50 dB -25.84 dB 6:39 07-Bizet: L'Arlesienne, Suite 1 1-Prelude
DR15 -10.36 dB -29.62 dB 2:53 08-Bizet: L'Arlesienne, Suite 1 2-Minuetto
DR13 -13.22 dB -30.33 dB 3:10 09-Bizet: L'Arlesienne, Suite 1 3-Adagietto
DR13 -6.07 dB -24.88 dB 4:00 10-Bizet: L'Arlesienne, Suite 1 4-Carillon
DR14 -6.73 dB -26.38 dB 5:49 11-Bizet: L'Arlesienne, Suite 2 1-Pastorale
DR12 -9.12 dB -25.97 dB 4:14 12-Bizet: L'Arlesienne, Suite 2 2-Intermezzo
DR13 -8.59 dB -26.65 dB 3:46 13-Bizet: L'Arlesienne, Suite 2 3-Menuet
DR13 -6.12 dB -22.63 dB 3:20 14-Bizet: L'Arlesienne, Suite 2 4-Farandole
––––––––––––––––––––––––––––––––––––––––

Number of tracks: 14
Official DR value: DR14

Samplerate: 2822400 Hz / PCM Samplerate: 176400 Hz
Channels: 2
Bits per sample: 1
Bitrate: 5645 kbps
Codec: DSD64


Thanks to the Original ripper!
Tower Records Japan # TWSA-1018~19
Uncompressed SACD ISO size > 3,13 + 3,11 GB
>