Rumer - Boys Don't Cry (2012) {Deluxe Edition} [Official Digital Download 24bit/88,2kHz]

Posted By: HDV
Rumer - Boys Don't Cry (2012) {Deluxe Edition} [Official Digital Download 24bit/88,2kHz]

Rumer - Boys Don't Cry (2012) [Deluxe Edition]
FLAC (tracks) 24 bit/88,2 kHz | Time - 55:56 minutes | 1,18 GB
Studio Master, Official Digital Download | Artwork: Front cover

Boys Don’t Cry is the alluring sophomore album from British singer-songwriter Rumer. Her breakthrough debut, Seasons of My Soul, has sold over a million copies, establishing the vocalist as one of music’s rising stars. The evocative listen is packed with soft-rock covers from various male artists of the 1970s. Her sultry and soulful vocal stylings have engaged fans across the globe. In 2011, the singer won the MOJO Award for Best Breakthrough Act and the UK Asian Music Award for Best Alternative Act. On Boys Don’t Cry, the singer’s interpretative skills are simply unparalleled. The album includes Hayes’ “Soulsville,” Webb’s “P.F. Sloan,” Hall & Oates’ “Sara Smile” and much more. An essential recording that will have you on the edge of your seats!

Rumer's sophomore effort, 2012's Boys Don't Cry, is a retro soft rock covers album that finds the vocalist tackling tracks by various male artists of the 1970s. As with her acclaimed 2010 debut, Seasons of My Soul, Boys Don't Cry showcases Rumer's gentle and sweetly soulful vocal style that is clearly perfectly suited to this material. In fact, for anyone already familiar with her, it almost goes without saying that Rumer sounds a lot like soft pop icon Karen Carpenter. However, rather than coming off as a copycat, Rumer always sounds like the real thing and seems like she has genuine respect and love for Carpenter and the rest of the soft singer/songwriter titans. She nailed Bread's "Goodbye Girl" on Seasons for gosh sakes, and Boys Don't Cry takes its cue from that cover and not the original material written in a retro style that made up most of Seasons. Here we get Rumer's take on such laid-back cuts as Jimmy Webb's "P.F. Sloan," Todd Rundgren's "Be Nice to Me," and Hall & Oates' "Sara Smile," among others. Adding to the '70s soft rock vibe is the lush orchestral production from Steve Brown, who was also responsible for the sound of Seasons. These are organic and rich-sounding tracks that frame Rumer's voice in sparkling piano, cinematic bits of strings, rounded horn parts, the twang of the occasional pedal steel guitar, and even a poignant harmonica line, as on Townes Van Zandt's "Flyin' Shoes." Kudos to Rumer for not just covering the most well-known cuts from the best-known '70s artists, but also including such lesser-known numbers as Clifford T. Ward's "Home Thoughts from Abroad" and Terry Reid's "Brave Awakening".

Tracklist:

01 - P.F. Sloan
02 - Travelin' Boy
03 - Sara Smile
04 - Be Nice To Me
05 - The Same Old Tears On A New Background
06 - Soulsville
07 - Welcome Back
08 - Flyin' Shoes
09 - Just For A Moment
10 - It Could Be The First Day
11 - Brave Awakening
12 - A Man Needs A Maid
13 - My Cricket (Bonus Track)
14 - Home Thoughts From Abroad (Bonus Track)
15 - We Will (Bonus Track)
16 - Soul Rebel (Bonus Track)

Analyzed: Rumer / Boys Don't Cry (Deluxe)
––––––––––––––––––––––––––––––––––––––––

DR Peak RMS Duration Track
––––––––––––––––––––––––––––––––––––––––
DR8 -0.06 dB -10.22 dB 4:11 01-P.F. Sloan
DR7 -0.07 dB -8.68 dB 3:20 02-Travelin' Boy
DR7 -0.10 dB -8.45 dB 3:33 03-Sara Smile
DR7 -0.09 dB -9.43 dB 3:27 04-Be Nice To Me
DR9 -0.10 dB -11.98 dB 2:49 05-The Same Old Tears On A New Background
DR7 -0.10 dB -9.14 dB 3:47 06-Soulsville
DR8 -0.08 dB -9.75 dB 3:35 07-Welcome Back
DR8 -0.10 dB -10.12 dB 4:05 08-Flyin' Shoes
DR7 -0.09 dB -9.33 dB 2:39 09-Just For A Moment
DR7 -0.09 dB -8.99 dB 2:27 10-It Could Be The First Day
DR7 -0.09 dB -8.84 dB 4:11 11-Brave Awakening
DR9 -0.10 dB -12.06 dB 4:02 12-A Man Needs A Maid
DR7 -0.07 dB -9.35 dB 2:50 13-My Cricket (Bonus Track)
DR8 -0.09 dB -11.61 dB 3:28 14-Home Thoughts From Abroad (Bonus Track)
DR9 -0.10 dB -11.72 dB 4:00 15-We Will (Bonus Track)
DR9 -0.10 dB -11.84 dB 3:31 16-Soul Rebel (Bonus Track)
––––––––––––––––––––––––––––––––––––––––

Number of tracks: 16
Official DR value: DR8

Samplerate: 88200 Hz
Channels: 2
Bits per sample: 24
Bitrate: 2772 kbps
Codec: FLAC
================================================================================


Thanks to the Original customer!