Rush - Counterparts (1993) [Audio Fidelity '2013] PS3 ISO + Hi-Res FLAC

Posted By: HDAtall
Rush - Counterparts (1993) [Audio Fidelity '2013] PS3 ISO + Hi-Res FLAC

Rush - Counterparts (1993) [Audio Fidelity '2013]
PS3 Rip | SACD ISO | DSD64 2.0 > 1-bit/2.8224 MHz | 54:59 minutes | Scans included | 1,7 GB
or FLAC(converted with foobar2000 to tracks) 24bit/96 kHz | Full Scans included | 1,31 GB
Audio Fidelity SACD #AFZ-152 | Mastered for this SACD by Kevin Grey at Cohearent Audio

By 1993, alternative rock had arrived in a big way, and surprisingly, Canadian veterans Rush were game, releasing their most honest and organic rock & roll record in over a decade with Counterparts. Opener "Animate" is straightforward enough, but doesn't even hint at the guitar ferocity and lyrical angst of "Stick it Out," a song which undoubtedly polarizes Rush fans to this day. Intellectual melodic rockers like "Cut to the Chase," "At the Speed of Love," and "Everyday Glory" are also present (and less shocking), but diversity continues to rule the day with Geddy Lee's bass taking charge on the amazingly somber "Double Agent" and the giddy instrumental "Leave That Thing Alone." Pure hard rock resurfaces on "Cold Fire," but it is the largely acoustic "Nobody's Hero" which provides the album's most gripping moment with an impassioned plea for HIV consciousness and understanding.

Tracklist:

01. Animate
02. Stick It Out
03. Cut to the Chase
04. Nobody's Here
05. Between Sun & Moon
06. Alien Shore
07. The Speed of Love
08. Double Agent
09. Leave That Thing Alone
10. Cold Fire
11. Everyday Glory

Mastered for this SACD by Kevin Grey at Cohearent Audio.

foobar2000 1.2.5 / Dynamic Range Meter 1.1.1

––––––––––––––––––––––––––––––––––––––––
Analyzed: Rush / Counterparts
––––––––––––––––––––––––––––––––––––––––

DR Peak RMS Duration Track
––––––––––––––––––––––––––––––––––––––––
DR12 -6.00 dB -19.95 dB 6:04 01-Animate
DR10 -7.78 dB -19.43 dB 4:48 02-Stick It Out
DR12 -6.36 dB -19.98 dB 4:49 03-Cut to the Chase
DR12 -6.26 dB -21.25 dB 5:05 04-Nobody's Here
DR13 -6.27 dB -20.42 dB 4:40 05-Between Sun & Moon
DR12 -5.90 dB -19.53 dB 5:48 06-Alien Shore
DR12 -6.32 dB -20.59 dB 5:03 07-The Speed of Love
DR12 -6.64 dB -20.14 dB 4:52 08-Double Agent
DR12 -6.49 dB -21.19 dB 4:08 09-Leave That Thing Alone
DR13 -5.77 dB -20.89 dB 4:27 10-Cold Fire
DR14 -5.90 dB -21.47 dB 5:16 11-Everyday Glory
––––––––––––––––––––––––––––––––––––––––

Number of tracks: 11
Official DR value: DR12

Samplerate: 2822400 Hz / PCM Samplerate: 88200 Hz
Channels: 2
Bits per sample: 24
Bitrate: 5645 kbps
Codec: DSD64


Thanks to PS³SACD!
Uncompressed SACD ISO size > 2,2 GB
>